Rod Stewart – If We Fall In Love Tonight




Artist: Rod Stewart
Year: 1996
Genre: Rock
Notes: Discogs
Add. Notes:
Cover incl.: Yes
Encoder: FLAC
Bitrate: ~900 kBit/s (44.1 kHz/16 Bit/s)
Log & Cue incl.: Yes
Size: 478,9 MB
Password: “slam” (without ” “)


All Downloads/Hosters are compatible

Download 1
KatFile.com
Turbobit.net
FileFactory.com
Rapidgator.net
Download 2
KatFile.com
Turbobit.net
FileFactory.com
Rapidgator.net

Tracklist:

1 If We Fall In Love Tonight 5:42
2 For The First Time 4:07
3 When I Need You 4:52
4 Sometimes When We Touch 4:20
5 Tonight's The Night (Gonna Be Alright) 3:34
6 I Don't Want To Talk About 4:21
7 Have I Told You Lately (Studio Version Remix) 3:58
8 Broken Arrow 4:23
9 Forever Young (1996) 4:57
10 You're In My Heart 4:28
11 My Heart Can't Tell You No 5:14
12 First Cut Is The Deepest 3:52
13 Sailing 4:21
14 Downtown Train 4:38
15 Tom Traubert's Blues (Waltzing Matilda) 6:12
16 All For Love 4:44

EAC-Log, CUE-Sheed & NFO:

Click to open spoiler
Exact Audio Copy V1.1 from 23. June 2015

EAC extraction logfile from 19. September 2015, 23:29

Rod Stewart / If we fall in love tonight

Used drive : PIONEER DVD-RW DVR-111D Adapter: 1 ID: 0

Read mode : Secure
Utilize accurate stream : Yes
Defeat audio cache : Yes
Make use of C2 pointers : No

Read offset correction : 48
Overread into Lead-In and Lead-Out : No
Fill up missing offset samples with silence : Yes
Delete leading and trailing silent blocks : No
Null samples used in CRC calculations : Yes
Used interface : Native Win32 interface for Win NT & 2000

Used output format : User Defined Encoder
Selected bitrate : 768 kBit/s
Quality : High
Add ID3 tag : No
Command line compressor : C:\Program Files\Exact Audio Copy\Flac\flac.exe
Additional command line options : -V -8 %source%

TOC of the extracted CD

Track | Start | Length | Start sector | End sector
———————————————————
1 | 0:00.00 | 5:41.62 | 0 | 25636
2 | 5:41.62 | 4:01.63 | 25637 | 43774
3 | 9:43.50 | 4:50.55 | 43775 | 65579
4 | 14:34.30 | 4:24.72 | 65580 | 85451
5 | 18:59.27 | 3:33.18 | 85452 | 101444
6 | 22:32.45 | 4:50.02 | 101445 | 123196
7 | 27:22.47 | 3:58.08 | 123197 | 141054
8 | 31:20.55 | 4:21.22 | 141055 | 160651
9 | 35:42.02 | 4:52.38 | 160652 | 182589
10 | 40:34.40 | 4:28.02 | 182590 | 202691
11 | 45:02.42 | 5:11.23 | 202692 | 226039
12 | 50:13.65 | 3:50.45 | 226040 | 243334
13 | 54:04.35 | 4:20.17 | 243335 | 262851
14 | 58:24.52 | 4:36.30 | 262852 | 283581
15 | 63:01.07 | 6:10.28 | 283582 | 311359
16 | 69:11.35 | 4:41.17 | 311360 | 332451

Range status and errors

Selected range

Filename D:\rs\if we fall in love\Rod Stewart – If we fall in love tonight.wav

Peak level 96.1 %
Extraction speed 2.5 X
Range quality 100.0 %
Test CRC 5CD1E607
Copy CRC 5CD1E607
Copy OK

No errors occurred

AccurateRip summary

Track 1 accurately ripped (confidence 104) [308C4D86] (AR v2)
Track 2 accurately ripped (confidence 101) [242DB9FD] (AR v2)
Track 3 accurately ripped (confidence 102) [D256B592] (AR v2)
Track 4 accurately ripped (confidence 101) [75436100] (AR v2)
Track 5 accurately ripped (confidence 102) [F9B752E6] (AR v2)
Track 6 accurately ripped (confidence 102) [4E6B8C8D] (AR v2)
Track 7 accurately ripped (confidence 103) [C7652159] (AR v2)
Track 8 accurately ripped (confidence 103) [A6C8EAF3] (AR v2)
Track 9 accurately ripped (confidence 103) [95DD4A4C] (AR v2)
Track 10 accurately ripped (confidence 101) [AD009475] (AR v2)
Track 11 accurately ripped (confidence 102) [A5EAADE0] (AR v2)
Track 12 accurately ripped (confidence 103) [62938BDE] (AR v2)
Track 13 accurately ripped (confidence 101) [BF6FE244] (AR v2)
Track 14 accurately ripped (confidence 101) [4D95A2D3] (AR v2)
Track 15 accurately ripped (confidence 98) [F390EBBC] (AR v2)
Track 16 accurately ripped (confidence 95) [8E0164B7] (AR v2)

All tracks accurately ripped

End of status report

—- CUETools DB Plugin V2.1.6

[CTDB TOCID: Kc2FzRgoxnmn7yNqLMGdpd_lvJI-] found
Submit result: Kc2FzRgoxnmn7yNqLMGdpd_lvJI- has been confirmed
Track | CTDB Status
1 | (147/159) Accurately ripped
2 | (146/159) Accurately ripped
3 | (148/159) Accurately ripped
4 | (148/159) Accurately ripped
5 | (148/159) Accurately ripped
6 | (148/159) Accurately ripped
7 | (148/159) Accurately ripped
8 | (146/159) Accurately ripped
9 | (148/159) Accurately ripped
10 | (147/159) Accurately ripped
11 | (148/159) Accurately ripped
12 | (148/159) Accurately ripped
13 | (148/159) Accurately ripped
14 | (147/159) Accurately ripped
15 | (145/159) Accurately ripped
16 | (143/159) Accurately ripped

==== Log checksum 1CDD0DCFD279FF39C01FB1AC19F7AE909FA299732AF261A4D02ACF40350B1A6A ====

REM GENRE Rock
REM DATE 1996
REM DISCID D8115010
REM COMMENT “ExactAudioCopy v1.1”
PERFORMER “Rod Stewart”
TITLE “If we fall in love tonight”
FILE “Rod Stewart – If we fall in love tonight.flac” WAVE
TRACK 01 AUDIO
TITLE “If we fall in love tonight”
PERFORMER “Rod Stewart”
INDEX 01 00:00:00
TRACK 02 AUDIO
TITLE “For the first time”
PERFORMER “Rod Stewart”
INDEX 01 05:41:62
TRACK 03 AUDIO
TITLE “When I need you”
PERFORMER “Rod Stewart”
INDEX 00 09:43:40
INDEX 01 09:43:50
TRACK 04 AUDIO
TITLE “Sometimes when we touch”
PERFORMER “Rod Stewart”
INDEX 01 14:34:30
TRACK 05 AUDIO
TITLE “Tonight’s the night (Gonna be alright)”
PERFORMER “Rod Stewart”
INDEX 01 18:59:27
TRACK 06 AUDIO
TITLE “I don’t want to talk about it”
PERFORMER “Rod Stewart”
INDEX 01 22:32:45
TRACK 07 AUDIO
TITLE “Have I told you lately? [studio version remix]”
PERFORMER “Rod Stewart”
INDEX 01 27:22:47
TRACK 08 AUDIO
TITLE “Broken arrow”
PERFORMER “Rod Stewart”
INDEX 01 31:20:55
TRACK 09 AUDIO
TITLE “Forever young (1996)”
PERFORMER “Rod Stewart”
INDEX 01 35:42:02
TRACK 10 AUDIO
TITLE “You’re in my heart”
PERFORMER “Rod Stewart”
INDEX 01 40:34:40
TRACK 11 AUDIO
TITLE “My heart can’t tell you no”
PERFORMER “Rod Stewart”
INDEX 01 45:02:42
TRACK 12 AUDIO
TITLE “First cut is the deepest”
PERFORMER “Rod Stewart”
INDEX 01 50:13:65
TRACK 13 AUDIO
TITLE “Sailing”
PERFORMER “Rod Stewart”
INDEX 01 54:04:35
TRACK 14 AUDIO
TITLE “Downtown train”
PERFORMER “Rod Stewart”
INDEX 01 58:24:52
TRACK 15 AUDIO
TITLE “Tom Traubert’s blues (Waltzing Matilda)”
PERFORMER “Rod Stewart”
INDEX 01 63:01:07
TRACK 16 AUDIO
TITLE “Bryan Adams; Rod Stewart; Sting / All for love”
PERFORMER “Rod Stewart”
INDEX 01 69:11:35


Leave a Reply

Your email address will not be published. Required fields are marked *

This site uses Akismet to reduce spam. Learn how your comment data is processed.