Rod Stewart – Human (Japanese Edition)




Artist: Rod Stewart
Year: 2001
Genre: Rock
Notes: Discogs
Add. Notes: Japanese Edition
Cover incl.: Yes
Encoder: FLAC
Bitrate: ~1000 kBit/s (44.1 kHz/16 Bit/s)
Log & Cue incl.: Yes
Size: 359 MB
Password: “slam” (without ” “)


All Downloads/Hosters are compatible

Download 1
KatFile.com
Turbobit.net
FileFactory.com
Rapidgator.net
Download 2
KatFile.com
Turbobit.net
FileFactory.com
Rapidgator.net

Tracklist:

1. Human
2. Smitten
3. Don't Come Around Here
4. Soul On Soul
5. Loveless
6. If I Had You
7. Charlie Parker Loves Me
8. It Was Love That We Needed
9. To Be With You
10. Run Back Into Your Arms
11. I Can't Deny It
12. Peach

EAC-Log, CUE-Sheed & NFO:

Click to open spoiler
Exact Audio Copy V1.3 from 2. September 2016

EAC extraction logfile from 12. October 2017, 22:16

Rod Stewart / Human

Used drive : Optiarc DVD RW AD-7260S Adapter: 1 ID: 2

Read mode : Secure
Utilize accurate stream : Yes
Defeat audio cache : Yes
Make use of C2 pointers : No

Read offset correction : 48
Overread into Lead-In and Lead-Out : No
Fill up missing offset samples with silence : Yes
Delete leading and trailing silent blocks : No
Null samples used in CRC calculations : Yes
Used interface : Native Win32 interface for Win NT & 2000

Used output format : User Defined Encoder
Selected bitrate : 128 kBit/s
Quality : High
Add ID3 tag : No
Command line compressor : C:\Program Files\Exact Audio Copy\Flac\flac.exe
Additional command line options : -V -8 -T “Date=%year%” -T “Genre=%genre%” %source%

TOC of the extracted CD

Track | Start | Length | Start sector | End sector
———————————————————
1 | 0:00.00 | 3:44.32 | 0 | 16831
2 | 3:44.32 | 3:47.73 | 16832 | 33929
3 | 7:32.30 | 5:00.27 | 33930 | 56456
4 | 12:32.57 | 3:49.23 | 56457 | 73654
5 | 16:22.05 | 4:30.50 | 73655 | 93954
6 | 20:52.55 | 4:00.00 | 93955 | 111954
7 | 24:52.55 | 4:18.25 | 111955 | 131329
8 | 29:11.05 | 4:41.10 | 131330 | 152414
9 | 33:52.15 | 4:11.42 | 152415 | 171281
10 | 38:03.57 | 3:55.73 | 171282 | 188979
11 | 41:59.55 | 3:26.27 | 188980 | 204456
12 | 45:26.07 | 3:47.18 | 204457 | 221499

Range status and errors

Selected range

Filename M:\Slava Z\H 2001\Rod Stewart – Human.wav

Peak level 99.8 %
Extraction speed 2.9 X
Range quality 100.0 %
Test CRC BBAD8179
Copy CRC BBAD8179
Copy OK

No errors occurred

AccurateRip summary

Track 1 accurately ripped (confidence 7) [848D0BB8] (AR v2)
Track 2 accurately ripped (confidence 6) [DF8DBEFE] (AR v2)
Track 3 accurately ripped (confidence 7) [11015C93] (AR v2)
Track 4 accurately ripped (confidence 7) [AD6C231E] (AR v2)
Track 5 accurately ripped (confidence 7) [C2C9805E] (AR v2)
Track 6 accurately ripped (confidence 6) [75988569] (AR v2)
Track 7 accurately ripped (confidence 6) [40E305FB] (AR v2)
Track 8 accurately ripped (confidence 6) [EA80CC28] (AR v2)
Track 9 accurately ripped (confidence 7) [CBFC4F1B] (AR v2)
Track 10 accurately ripped (confidence 7) [90ABA788] (AR v2)
Track 11 accurately ripped (confidence 7) [C11DAC36] (AR v2)
Track 12 accurately ripped (confidence 7) [4667EB70] (AR v2)

All tracks accurately ripped

End of status report

—- CUETools DB Plugin V2.1.6

[CTDB TOCID: jkO64OYToLfeq6Vo__50a7lO8bM-] found
Submit result: jkO64OYToLfeq6Vo__50a7lO8bM- has been confirmed
Track | CTDB Status
1 | (13/13) Accurately ripped
2 | (12/13) Accurately ripped
3 | (12/13) Accurately ripped
4 | (12/13) Accurately ripped
5 | (12/13) Accurately ripped
6 | (12/13) Accurately ripped
7 | (12/13) Accurately ripped
8 | (12/13) Accurately ripped
9 | (12/13) Accurately ripped
10 | (12/13) Accurately ripped
11 | (12/13) Accurately ripped
12 | (13/13) Accurately ripped

==== Log checksum 2AC919C7F6128E2B1B531DC1D94138CB36F2A406CC83AA5017795FCF8F21857E ====

REM GENRE Rock
REM DATE 2001
REM DISCID A30B890C
REM COMMENT “ExactAudioCopy v1.3”
PERFORMER “Rod Stewart”
TITLE “Human”
REM COMPOSER “”
FILE “Rod Stewart – Human.flac” WAVE
TRACK 01 AUDIO
TITLE “I Can’t Deny It”
PERFORMER “Rod Stewart”
REM COMPOSER “”
INDEX 01 00:00:00
TRACK 02 AUDIO
TITLE “Human”
PERFORMER “Rod Stewart”
REM COMPOSER “”
INDEX 00 03:44:17
INDEX 01 03:44:32
TRACK 03 AUDIO
TITLE “Smitten”
PERFORMER “Rod Stewart”
REM COMPOSER “”
INDEX 01 07:32:30
TRACK 04 AUDIO
TITLE “Don’t Come Around Here (with Helicopter Girl)”
PERFORMER “Rod Stewart”
REM COMPOSER “”
INDEX 01 12:32:57
TRACK 05 AUDIO
TITLE “Soul On Soul”
PERFORMER “Rod Stewart”
REM COMPOSER “”
INDEX 01 16:22:05
TRACK 06 AUDIO
TITLE “Loveless”
PERFORMER “Rod Stewart”
REM COMPOSER “”
INDEX 01 20:52:55
TRACK 07 AUDIO
TITLE “If I Had You”
PERFORMER “Rod Stewart”
REM COMPOSER “”
INDEX 01 24:52:55
TRACK 08 AUDIO
TITLE “Charlie Parker Loves Me”
PERFORMER “Rod Stewart”
REM COMPOSER “”
INDEX 01 29:11:05
TRACK 09 AUDIO
TITLE “It Was Love That We Needed”
PERFORMER “Rod Stewart”
REM COMPOSER “”
INDEX 01 33:52:15
TRACK 10 AUDIO
TITLE “To Be With You”
PERFORMER “Rod Stewart”
REM COMPOSER “”
INDEX 01 38:03:57
TRACK 11 AUDIO
TITLE “Run Back Into Your Arms”
PERFORMER “Rod Stewart”
REM COMPOSER “”
INDEX 01 41:59:55
TRACK 12 AUDIO
TITLE “Peach (Bonus Tracks)”
PERFORMER “Rod Stewart”
REM COMPOSER “”
INDEX 00 45:25:62
INDEX 01 45:26:07


Leave a Reply

Your email address will not be published. Required fields are marked *

Enter the text from the image below
 

This site uses Akismet to reduce spam. Learn how your comment data is processed.