Rod Stewart – Gasoline Alley




Artist: Rod Stewart
Year: 1970/1995
Genre: Rock
Notes: Discogs
Add. Notes:
Cover incl.: Yes
Encoder: FLAC
Bitrate: ~900 kBit/s (44.1 kHz/16 Bit/s)
Log & Cue incl.: Yes
Size: 263,09 MB
Password: “slam” (without ” “)


All Downloads/Hosters are compatible

Download 1
Turbobit.net
KatFile.com
Rapidgator.net
NitroFlare.com
Download 2
Turbobit.net
KatFile.com
Rapidgator.net
NitroFlare.com

Tracklist:

1 - Gasoline Alley - 4:02
2 - It's All Over Now - 6:22
3 - Only A Hobo - 4:13
4 - My Way Of Giving - 3:55
5 - Country Comforts - 4:42
6 - Cut Across Shorty - 6:28
7 - Lady Day - 3:57
8 - Jo's Lament - 3:24
9 - You're My Girl (I Don't Want To Discuss It) - 4:27

EAC-Log, CUE-Sheed & NFO:

Click to open spoiler
Exact Audio Copy V1.3 from 2. September 2016

EAC extraction logfile from 11. October 2017, 12:53

Rod Stewart / Gasoline Alley

Used drive : Optiarc DVD RW AD-7260S Adapter: 1 ID: 2

Read mode : Secure
Utilize accurate stream : Yes
Defeat audio cache : Yes
Make use of C2 pointers : No

Read offset correction : 48
Overread into Lead-In and Lead-Out : No
Fill up missing offset samples with silence : Yes
Delete leading and trailing silent blocks : No
Null samples used in CRC calculations : Yes
Used interface : Native Win32 interface for Win NT & 2000

Used output format : User Defined Encoder
Selected bitrate : 128 kBit/s
Quality : High
Add ID3 tag : No
Command line compressor : C:\Program Files\Exact Audio Copy\Flac\flac.exe
Additional command line options : -V -8 -T “Date=%year%” -T “Genre=%genre%” %source%

TOC of the extracted CD

Track | Start | Length | Start sector | End sector
———————————————————
1 | 0:00.00 | 4:08.20 | 0 | 18619
2 | 4:08.20 | 6:25.67 | 18620 | 47561
3 | 10:34.12 | 4:22.28 | 47562 | 67239
4 | 14:56.40 | 4:03.12 | 67240 | 85476
5 | 18:59.52 | 4:45.28 | 85477 | 106879
6 | 23:45.05 | 6:34.37 | 106880 | 136466
7 | 30:19.42 | 4:05.70 | 136467 | 154911
8 | 34:25.37 | 3:31.20 | 154912 | 170756
9 | 37:56.57 | 4:34.68 | 170757 | 191374

Range status and errors

Selected range

Filename M:\Новая папка\GA 1970\Rod Stewart – Gasoline Alley.wav

Peak level 100.0 %
Extraction speed 3.1 X
Range quality 100.0 %
Test CRC EC176702
Copy CRC EC176702
Copy OK

No errors occurred

AccurateRip summary

Track 1 accurately ripped (confidence 12) [57A2E587] (AR v2)
Track 2 accurately ripped (confidence 12) [28F2FD7B] (AR v2)
Track 3 accurately ripped (confidence 12) [718961F2] (AR v2)
Track 4 accurately ripped (confidence 12) [DC2F9A99] (AR v2)
Track 5 accurately ripped (confidence 12) [C46E7DEC] (AR v2)
Track 6 accurately ripped (confidence 12) [66AD95CA] (AR v2)
Track 7 accurately ripped (confidence 12) [306BA277] (AR v2)
Track 8 accurately ripped (confidence 12) [FD03FF67] (AR v2)
Track 9 accurately ripped (confidence 12) [BF4EE2E5] (AR v2)

All tracks accurately ripped

End of status report

—- CUETools DB Plugin V2.1.6

[CTDB TOCID: zZafJM1tTd419aatSvfZI7IFzXw-] found
Submit result: zZafJM1tTd419aatSvfZI7IFzXw- has been confirmed
Track | CTDB Status
1 | (8/8) Accurately ripped
2 | (8/8) Accurately ripped
3 | (8/8) Accurately ripped
4 | (8/8) Accurately ripped
5 | (8/8) Accurately ripped
6 | (8/8) Accurately ripped
7 | (8/8) Accurately ripped
8 | (8/8) Accurately ripped
9 | (8/8) Accurately ripped

==== Log checksum 3807E65A616013155F55D67D8456D960884C1EC3E608EF45CF0B5FFA5C1006EC ====

REM GENRE Rock
REM DATE 1970
REM DISCID 7409F709
REM COMMENT “ExactAudioCopy v1.3”
PERFORMER “Rod Stewart”
TITLE “Gasoline Alley”
REM COMPOSER “”
FILE “Rod Stewart – Gasoline Alley.flac” WAVE
TRACK 01 AUDIO
TITLE “Gasoline Alley”
PERFORMER “Rod Stewart”
REM COMPOSER “”
INDEX 01 00:00:00
TRACK 02 AUDIO
TITLE “It’s All Over Now”
PERFORMER “Rod Stewart”
REM COMPOSER “”
INDEX 00 04:05:40
INDEX 01 04:08:20
TRACK 03 AUDIO
TITLE “Only A Hobo”
PERFORMER “Rod Stewart”
REM COMPOSER “”
INDEX 00 10:32:70
INDEX 01 10:34:12
TRACK 04 AUDIO
TITLE “My Way of Giving”
PERFORMER “Rod Stewart”
REM COMPOSER “”
INDEX 00 14:53:60
INDEX 01 14:56:40
TRACK 05 AUDIO
TITLE “Country Comfort”
PERFORMER “Rod Stewart”
REM COMPOSER “”
INDEX 00 18:56:72
INDEX 01 18:59:52
TRACK 06 AUDIO
TITLE “Cut Across Shorty”
PERFORMER “Rod Stewart”
REM COMPOSER “”
INDEX 00 23:41:62
INDEX 01 23:45:05
TRACK 07 AUDIO
TITLE “Lady Day”
PERFORMER “Rod Stewart”
REM COMPOSER “”
INDEX 00 30:16:25
INDEX 01 30:19:42
TRACK 08 AUDIO
TITLE “Jo’s Lament”
PERFORMER “Rod Stewart”
REM COMPOSER “”
INDEX 00 34:23:00
INDEX 01 34:25:37
TRACK 09 AUDIO
TITLE “I Don’t Want to Discuss It”
PERFORMER “Rod Stewart”
REM COMPOSER “”
INDEX 00 37:53:22
INDEX 01 37:56:57


Leave a Reply

Your email address will not be published. Required fields are marked *

This site uses Akismet to reduce spam. Learn how your comment data is processed.