Rod Stewart – Gasoline Alley




Artist: Rod Stewart
Year: 1970/1990
Genre: Rock
Notes: Discogs
Add. Notes:
Cover incl.: Yes
Encoder: FLAC
Bitrate: ~800 kBit/s (44.1 kHz/16 Bit/s)
Log & Cue incl.: Yes
Size: 256 MB
Password: “slam” (without ” “)


All Downloads/Hosters are compatible

Download 1
KatFile.com
Rapidgator.net
NitroFlare.com
Turbobit.net
Download 2
KatFile.com
Rapidgator.net
NitroFlare.com
Turbobit.net

Tracklist:

1 - Gasoline Alley - 4:02
2 - It's All Over Now - 6:22
3 - Only A Hobo - 4:13
4 - My Way Of Giving - 3:55
5 - Country Comforts - 4:42
6 - Cut Across Shorty - 6:28
7 - Lady Day - 3:57
8 - Jo's Lament - 3:24
9 - You're My Girl (I Don't Want To 
Discuss It) - 4:27

EAC-Log, CUE-Sheed & NFO:

Click to open spoiler
Exact Audio Copy V1.1 from 23. June 2015

Отчёт EAC об извлечении, выполненном 10. сентября 2015, 22:02

Rod Stewart / Gasoline Alley

Дисковод: Optiarc DVD RW AD-7260S Adapter: 1 ID: 0

Режим чтения : Достоверность
Использование точного потока : Да
Отключение кэша аудио : Да
Использование указателей C2 : Нет

Коррекция смещения при чтении : 48
Способность читать области Lead-in и Lead-out : Нет
Заполнение пропущенных сэмплов тишиной : Да
Удаление блоков с тишиной в начале и конце : Нет
При вычислениях CRC использовались нулевые сэмплы : Да
Интерфейс : Встроенный Win32-интерфейс для Win NT/2000

Выходной формат : Внутренние WAV-операции
Формат сэмплов : 44.100 Гц; 16 бит; стерео

TOC извлечённого CD

Трек | Старт | Длительность | Начальный сектор | Конечный сектор
———————————————————————
1 | 0:00.32 | 4:05.50 | 32 | 18456
2 | 4:06.07 | 6:20.68 | 18457 | 47024
3 | 10:27.00 | 4:15.67 | 47025 | 66216
4 | 14:42.67 | 3:58.50 | 66217 | 84116
5 | 18:41.42 | 4:45.45 | 84117 | 105536
6 | 23:27.12 | 6:31.68 | 105537 | 134929
7 | 29:59.05 | 4:04.02 | 134930 | 153231
8 | 34:03.07 | 3:27.33 | 153232 | 168789
9 | 37:30.40 | 4:26.47 | 168790 | 188786

Характеристики диапазона извлечения и сообщения об ошибках

Выбранный диапазон

Имя файла C:\Users\Slava Z\Desktop\Rod Stewart – Gasoline Alley.wav

Пиковый уровень 100.0 %
Скорость извлечения 3.6 X
Качество диапазона 100.0 %
CRC теста 4E6DA6F3
CRC копии 4E6DA6F3
Копирование… OK

Ошибок не произошло

AccurateRip: сводка

Трек 1 : извлечено точно (доверие 16) [78F8FD7A] (AR v2)
Трек 2 : извлечено точно (доверие 16) [D7D52FA0] (AR v2)
Трек 3 : извлечено точно (доверие 16) [71A9DC41] (AR v2)
Трек 4 : извлечено точно (доверие 16) [01FFF03F] (AR v2)
Трек 5 : извлечено точно (доверие 16) [A5D43BE2] (AR v2)
Трек 6 : извлечено точно (доверие 16) [1950A2DE] (AR v2)
Трек 7 : извлечено точно (доверие 16) [11B96C8E] (AR v2)
Трек 8 : извлечено точно (доверие 16) [35E08B45] (AR v2)
Трек 9 : извлечено точно (доверие 16) [AA537D75] (AR v2)

Все треки извлечены точно

Конец отчёта

==== Контрольная сумма отчёта 45EF03D12A3F77E82892C3ACD13874145270807C241A6DF95EB9EFDD074E558F ====

REM GENRE Rock
REM DATE 1970
REM DISCID 6A09D509
REM COMMENT “ExactAudioCopy v1.1”
PERFORMER “Rod Stewart”
TITLE “Gasoline Alley”
FILE “Rod Stewart – Gasoline Alley.flac” WAVE
TRACK 01 AUDIO
TITLE “Gasoline Alley”
PERFORMER “Rod Stewart”
INDEX 00 00:00:00
INDEX 01 00:00:32
TRACK 02 AUDIO
TITLE “It’s All Over Now”
PERFORMER “Rod Stewart”
INDEX 00 04:02:57
INDEX 01 04:06:07
TRACK 03 AUDIO
TITLE “Only a Hobo”
PERFORMER “Rod Stewart”
INDEX 00 10:23:50
INDEX 01 10:27:00
TRACK 04 AUDIO
TITLE “My Way of Giving”
PERFORMER “Rod Stewart”
INDEX 00 14:40:05
INDEX 01 14:42:67
TRACK 05 AUDIO
TITLE “Country Comforts”
PERFORMER “Rod Stewart”
INDEX 00 18:38:57
INDEX 01 18:41:42
TRACK 06 AUDIO
TITLE “Cut Across Shorty”
PERFORMER “Rod Stewart”
INDEX 00 23:23:60
INDEX 01 23:27:12
TRACK 07 AUDIO
TITLE “Lady Day”
PERFORMER “Rod Stewart”
INDEX 00 29:55:15
INDEX 01 29:59:05
TRACK 08 AUDIO
TITLE “Jo’s Lament”
PERFORMER “Rod Stewart”
INDEX 00 33:59:62
INDEX 01 34:03:07
TRACK 09 AUDIO
TITLE “You’re My Girl (I Don’t Want to Discuss It)”
PERFORMER “Rod Stewart”
INDEX 00 37:27:57
INDEX 01 37:30:40


Leave a Reply

Your email address will not be published. Required fields are marked *

This site uses Akismet to reduce spam. Learn how your comment data is processed.