Rod Stewart – Foot Loose & Fancy Free (Reissue)




Image not found

Artist: Rod Stewart
Year: 1977/1988
Genre: Rock
Notes: Discogs
Add. Notes: Reissue
Cover incl.: Yes
Encoder: FLAC
Bitrate: ~800 kBit/s (44.1 kHz/16 Bit/s)
Log & Cue incl.: Yes/Yes
Size: 385,08 MB
Password: “slam” (without ” “)


All Downloads/Hosters are compatible

Download 1
KatFile.com
Turbobit.net
FileFactory.com
Rapidgator.net
Download 2
KatFile.com
Turbobit.net
FileFactory.com
Rapidgator.net

Tracklist:

1 Hot Legs 5:06
2 You're Insane 4:37
3 You're In My Heart 4:42
4 Born Loose 5:51
5 You Keep Me Hangin' On 8:21
6 (If Loving You Is Wrong) I Don't Want To Be Right 4:12
7 You Really Got A Nerve 4:48
8 I Was Only Joking 5:55

EAC-Log, CUE-Sheed & NFO:

Click to open spoiler
Exact Audio Copy V1.0 beta 3 from 29. August 2011

EAC extraction logfile from 26. August 2015, 0:16

Rod Stewart / Foot Loose & Fancy Free (3092-2)

Used drive : SONY CD-RW CRX210E1 Adapter: 0 ID: 1

Read mode : Secure
Utilize accurate stream : Yes
Defeat audio cache : Yes
Make use of C2 pointers : No

Read offset correction : 6
Overread into Lead-In and Lead-Out : No
Fill up missing offset samples with silence : Yes
Delete leading and trailing silent blocks : No
Null samples used in CRC calculations : Yes
Used interface : Native Win32 interface for Win NT & 2000

Used output format : Internal WAV Routines
Sample format : 44.100 Hz; 16 Bit; Stereo

TOC of the extracted CD

Track | Start | Length | Start sector | End sector
———————————————————
1 | 0:00.00 | 5:14.42 | 0 | 23591
2 | 5:14.42 | 4:51.55 | 23592 | 45471
3 | 10:06.22 | 4:30.20 | 45472 | 65741
4 | 14:36.42 | 6:04.20 | 65742 | 93061
5 | 20:40.62 | 7:28.08 | 93062 | 126669
6 | 28:08.70 | 5:26.27 | 126670 | 151146
7 | 33:35.22 | 4:59.23 | 151147 | 173594
8 | 38:34.45 | 6:07.37 | 173595 | 201156

Range status and errors

Selected range

Filename D:\Ready.zp\Rod Stewart – Foot Loose & Fancy Free (3092-2).wav

Peak level 100.0 %
Extraction speed 14.7 X
Range quality 100.0 %
Test CRC 30F37AD8
Copy CRC 30F37AD8
Copy OK

No errors occurred

AccurateRip summary

Track 1 accurately ripped (confidence 2) [74FDF1E6] (AR v2)
Track 2 accurately ripped (confidence 3) [3C8DD60D] (AR v2)
Track 3 accurately ripped (confidence 3) [EF15FE1A] (AR v2)
Track 4 accurately ripped (confidence 2) [C04D35B5] (AR v2)
Track 5 accurately ripped (confidence 2) [58F3D290] (AR v2)
Track 6 accurately ripped (confidence 2) [A7AE9C53] (AR v2)
Track 7 accurately ripped (confidence 2) [391817BB] (AR v2)
Track 8 accurately ripped (confidence 2) [1526B8B1] (AR v2)

All tracks accurately ripped

End of status report

==== Log checksum FA082F999DC74EC93D078909B97F4CAD71D755B253619309F2667AF42683466E ====

REM GENRE “Rock & Roll”
REM DATE 1977
REM DISCID 600A7A08
REM COMMENT “ExactAudioCopy v1.0b3”
PERFORMER “Rod Stewart”
TITLE “Foot Loose & Fancy Free (3092-2)”
FILE “Rod Stewart – Foot Loose & Fancy Free (3092-2).flac” WAVE
TRACK 01 AUDIO
TITLE “Hot Legs”
PERFORMER “Rod Stewart”
INDEX 01 00:00:00
TRACK 02 AUDIO
TITLE “You’re Insane”
PERFORMER “Rod Stewart”
INDEX 00 05:11:21
INDEX 01 05:14:42
TRACK 03 AUDIO
TITLE “You’re In My Heart”
PERFORMER “Rod Stewart”
INDEX 00 10:00:14
INDEX 01 10:06:22
TRACK 04 AUDIO
TITLE “Born Loose”
PERFORMER “Rod Stewart”
INDEX 00 14:32:71
INDEX 01 14:36:42
TRACK 05 AUDIO
TITLE “You Keep Me Hangin’ On”
PERFORMER “Rod Stewart”
INDEX 00 20:35:46
INDEX 01 20:40:62
TRACK 06 AUDIO
TITLE “(If Loving You Is Wrong) I Don’t Want To Be Right”
PERFORMER “Rod Stewart”
INDEX 00 28:05:49
INDEX 01 28:08:70
TRACK 07 AUDIO
TITLE “You Got A Nerve”
PERFORMER “Rod Stewart”
INDEX 00 33:29:31
INDEX 01 33:35:22
TRACK 08 AUDIO
TITLE “I Was Only Joking”
PERFORMER “Rod Stewart”
INDEX 00 38:30:66
INDEX 01 38:34:45


Leave a Reply

Your email address will not be published. Required fields are marked *

Enter the text from the image below
 

This site uses Akismet to reduce spam. Learn how your comment data is processed.