Rod Stewart – Foot Loose & Fancy Free (Limited Remastered Japanese Edition)




[Total: 0    Average: 0/5]

Artist: Rod Stewart
Year: 1977/2009
Genre: Rock
Notes: Discogs
Add. Notes: Limited Remastered Japanese Edition
Cover incl.: Yes
Encoder: FLAC
Bitrate: ~900 kBit/s (44.1 kHz/16 Bit/s)
Log & Cue incl.: Yes
Size: 307,05 MB
Password: “slam” (without ” “)


All Downloads/Hosters are compatible

Download 1
Share-online.biz
KatFile.com
Rapidgator.net
Turbobit.net
Download 2
Share-online.biz
KatFile.com
Rapidgator.net
Turbobit.net

Tracklist:

1 - Hot Legs - 5:11
2 - You're Insane - 4:45
3 - You're In My Heart (The Final Acclaim) - 4:42
4 - Born Loose - 5:58
5 - You Keep Me Hangin' On - 7:28
6 - I Don't Want To Be Right - 5:16
7 - You Got A Nerve - 4:57
8 - I Was Only Joking - 6:02

EAC-Log, CUE-Sheed & NFO:

Click to open spoiler
Exact Audio Copy V1.3 from 2. September 2016

EAC extraction logfile from 12. October 2017, 0:28

Rod Stewart / Foot Loose & Fancy Free

Used drive : Optiarc DVD RW AD-7260S Adapter: 1 ID: 2

Read mode : Secure
Utilize accurate stream : Yes
Defeat audio cache : Yes
Make use of C2 pointers : No

Read offset correction : 48
Overread into Lead-In and Lead-Out : No
Fill up missing offset samples with silence : Yes
Delete leading and trailing silent blocks : No
Null samples used in CRC calculations : Yes
Used interface : Native Win32 interface for Win NT & 2000

Used output format : User Defined Encoder
Selected bitrate : 128 kBit/s
Quality : High
Add ID3 tag : No
Command line compressor : C:\Program Files\Exact Audio Copy\Flac\flac.exe
Additional command line options : -V -8 -T “Date=%year%” -T “Genre=%genre%” %source%

TOC of the extracted CD

Track | Start | Length | Start sector | End sector
———————————————————
1 | 0:00.00 | 5:15.03 | 0 | 23627
2 | 5:15.03 | 4:51.60 | 23628 | 45512
3 | 10:06.63 | 4:30.37 | 45513 | 65799
4 | 14:37.25 | 6:04.28 | 65800 | 93127
5 | 20:41.53 | 7:28.47 | 93128 | 126774
6 | 28:10.25 | 5:26.10 | 126775 | 151234
7 | 33:36.35 | 4:59.65 | 151235 | 173724
8 | 38:36.25 | 6:07.50 | 173725 | 201299

Range status and errors

Selected range

Filename M:\Slava Z\FL&FF\Rod Stewart – Foot Loose & Fancy Free.wav

Peak level 100.0 %
Extraction speed 3.1 X
Range quality 100.0 %
Test CRC A4BD433A
Copy CRC A4BD433A
Copy OK

No errors occurred

AccurateRip summary

Track 1 accurately ripped (confidence 7) [61E50805] (AR v2)
Track 2 accurately ripped (confidence 7) [85ECDE37] (AR v2)
Track 3 accurately ripped (confidence 7) [E11FA527] (AR v2)
Track 4 accurately ripped (confidence 7) [9EBA9089] (AR v2)
Track 5 accurately ripped (confidence 7) [D7796AEA] (AR v2)
Track 6 accurately ripped (confidence 7) [5F549BEA] (AR v2)
Track 7 accurately ripped (confidence 7) [6DBA3883] (AR v2)
Track 8 accurately ripped (confidence 7) [FB55D549] (AR v2)

All tracks accurately ripped

End of status report

—- CUETools DB Plugin V2.1.6

[CTDB TOCID: .EPFYIHdz_CJpxfjwfT3gze2Mfg-] found
Submit result: .EPFYIHdz_CJpxfjwfT3gze2Mfg- has been confirmed
Track | CTDB Status
1 | (13/16) Accurately ripped
2 | (13/16) Accurately ripped
3 | (13/16) Accurately ripped
4 | (13/16) Accurately ripped
5 | (13/16) Accurately ripped
6 | (13/16) Accurately ripped
7 | (13/16) Accurately ripped
8 | (13/16) Accurately ripped

==== Log checksum FF6B2110E6679FBA4F5D59F0B6F527DFC1F6D06F741415DEBCB3B806B74EE654 ====

REM GENRE Rock
REM DATE 1977
REM DISCID 680A7C08
REM COMMENT “ExactAudioCopy v1.3”
PERFORMER “Rod Stewart”
TITLE “Foot Loose & Fancy Free”
REM COMPOSER “”
FILE “Rod Stewart – Foot Loose & Fancy Free.flac” WAVE
TRACK 01 AUDIO
TITLE “Hot Legs”
PERFORMER “Rod Stewart”
REM COMPOSER “”
INDEX 01 00:00:00
TRACK 02 AUDIO
TITLE “You’re Insane”
PERFORMER “Rod Stewart”
REM COMPOSER “”
INDEX 01 05:15:03
TRACK 03 AUDIO
TITLE “You’re In My Heart”
PERFORMER “Rod Stewart”
REM COMPOSER “”
INDEX 00 10:04:28
INDEX 01 10:06:63
TRACK 04 AUDIO
TITLE “Born Loose”
PERFORMER “Rod Stewart”
REM COMPOSER “”
INDEX 01 14:37:25
TRACK 05 AUDIO
TITLE “You Keep Me Hangin’ On”
PERFORMER “Rod Stewart”
REM COMPOSER “”
INDEX 00 20:40:50
INDEX 01 20:41:53
TRACK 06 AUDIO
TITLE “(If Loving You Is Wrong) I Don’t Want To Be Right”
PERFORMER “Rod Stewart”
REM COMPOSER “”
INDEX 01 28:10:25
TRACK 07 AUDIO
TITLE “You Got A Nerve”
PERFORMER “Rod Stewart”
REM COMPOSER “”
INDEX 00 33:34:50
INDEX 01 33:36:35
TRACK 08 AUDIO
TITLE “I Was Only Joking”
PERFORMER “Rod Stewart”
REM COMPOSER “”
INDEX 01 38:36:25


Spread the Download

Leave a Reply

Your email address will not be published. Required fields are marked *

Enter the text from the image below
 

This site uses Akismet to reduce spam. Learn how your comment data is processed.