Rod Stewart – Foolish Behaviour (Japanese Edition)




[Total: 0    Average: 0/5]

Artist: Rod Stewart
Year: 1980/1989
Genre: Rock
Notes: Discogs
Add. Notes: Japanese Edition
Cover incl.: Yes
Encoder: FLAC
Bitrate: ~900 kBit/s (44.1 kHz/16 Bit/s)
Log & Cue incl.: Yes
Size: 295 MB
Password: “slam” (without ” “)


All Downloads/Hosters are compatible

Download 1
KatFile.com
Turbobit.net
FileFactory.com
Rapidgator.net
Download 2
KatFile.com
Turbobit.net
FileFactory.com
Rapidgator.net

Tracklist:

1 - Better Off Dead - 3:08
2 - Passion - 5:34
3 - Foolish Behaviour - 4:25
4 - So Soon We Change - 3:45
5 - Oh God, I Wish I Was Home 
Tonight - 5:04
6 - Gi' Me Wings - 3:48
7 - My Girl - 4:28
8 - She Won't Dance With Me - 2:30
9 - Somebody Special - 4:30
10 - Say It Ain't True - 4:03

EAC-Log, CUE-Sheed & NFO:

Click to open spoiler
Exact Audio Copy V1.3 from 2. September 2016

EAC extraction logfile from 6. March 2018, 21:20

Rod Stewart / 1980 – Foolish Behaviour (Warner Bros. 18P2-2979 Japan 1989)

Used drive : HL-DT-STDVDRAM GH24NSC0 Adapter: 1 ID: 0

Read mode : Secure
Utilize accurate stream : Yes
Defeat audio cache : Yes
Make use of C2 pointers : No

Read offset correction : 6
Overread into Lead-In and Lead-Out : No
Fill up missing offset samples with silence : Yes
Delete leading and trailing silent blocks : No
Null samples used in CRC calculations : Yes
Used interface : Native Win32 interface for Win NT & 2000

Used output format : User Defined Encoder
Selected bitrate : 768 kBit/s
Quality : High
Add ID3 tag : No
Command line compressor : C:\Program Files (x86)\Exact Audio Copy\Flac\flac.exe
Additional command line options : -V -8 %source%

TOC of the extracted CD

Track | Start | Length | Start sector | End sector
———————————————————
1 | 0:00.00 | 3:08.20 | 0 | 14119
2 | 3:08.20 | 5:34.30 | 14120 | 39199
3 | 8:42.50 | 4:25.07 | 39200 | 59081
4 | 13:07.57 | 3:45.55 | 59082 | 76011
5 | 16:53.37 | 5:04.05 | 76012 | 98816
6 | 21:57.42 | 3:48.18 | 98817 | 115934
7 | 25:45.60 | 4:28.27 | 115935 | 136061
8 | 30:14.12 | 2:30.50 | 136062 | 147361
9 | 32:44.62 | 4:30.45 | 147362 | 167656
10 | 37:15.32 | 4:04.53 | 167657 | 186009

Range status and errors

Selected range

Filename C:\Users\Slava Z\Desktop\Rod Stewart – 1980 – Foolish Behaviour (Warner Bros. 18P2-2979 Japan 1989).wav

Peak level 88.4 %
Extraction speed 6.5 X
Range quality 100.0 %
Test CRC 865A128E
Copy CRC 865A128E
Copy OK

No errors occurred

AccurateRip summary

Track 1 accurately ripped (confidence 3) [977C6D64] (AR v2)
Track 2 accurately ripped (confidence 3) [B9BED85D] (AR v2)
Track 3 accurately ripped (confidence 3) [295D1BAA] (AR v2)
Track 4 accurately ripped (confidence 3) [32FD03A3] (AR v2)
Track 5 accurately ripped (confidence 3) [81C54948] (AR v2)
Track 6 accurately ripped (confidence 3) [6A179480] (AR v2)
Track 7 accurately ripped (confidence 3) [D24BF17B] (AR v2)
Track 8 accurately ripped (confidence 3) [82360131] (AR v2)
Track 9 accurately ripped (confidence 3) [A0E059AA] (AR v2)
Track 10 accurately ripped (confidence 3) [DF4C9741] (AR v2)

All tracks accurately ripped

End of status report

—- CUETools DB Plugin V2.1.6

[CTDB TOCID: .azXsxaLOgLUmhK8npE6vQ8xEpk-] found
Submit result: .azXsxaLOgLUmhK8npE6vQ8xEpk- has been confirmed
Track | CTDB Status
1 | (12/12) Accurately ripped
2 | (12/12) Accurately ripped
3 | (12/12) Accurately ripped
4 | (12/12) Accurately ripped
5 | (12/12) Accurately ripped
6 | (12/12) Accurately ripped
7 | (12/12) Accurately ripped
8 | (12/12) Accurately ripped
9 | (12/12) Accurately ripped
10 | (12/12) Accurately ripped

==== Log checksum B9278FAB1CE0E48AF7BE8C430A9815E40C70A430F19A8708BAF732E7BDD72263 ====

REM GENRE Rock
REM DATE 1980
REM DISCID 8909B00A
REM COMMENT “ExactAudioCopy v1.3”
PERFORMER “Rod Stewart”
TITLE “1980 – Foolish Behaviour (Warner Bros. 18P2-2979 Japan 1989)”
REM COMPOSER “”
FILE “Rod Stewart – 1980 – Foolish Behaviour (Warner Bros. 18P2-2979 Japan 1989).flac” WAVE
TRACK 01 AUDIO
TITLE “Better Off Dead”
PERFORMER “Rod Stewart”
REM COMPOSER “”
INDEX 01 00:00:00
TRACK 02 AUDIO
TITLE “Passion”
PERFORMER “Rod Stewart”
REM COMPOSER “”
INDEX 01 03:08:20
TRACK 03 AUDIO
TITLE “Foolish Behaviour”
PERFORMER “Rod Stewart”
REM COMPOSER “”
INDEX 00 08:39:25
INDEX 01 08:42:50
TRACK 04 AUDIO
TITLE “So Soon We Change”
PERFORMER “Rod Stewart”
REM COMPOSER “”
INDEX 00 13:06:70
INDEX 01 13:07:57
TRACK 05 AUDIO
TITLE “Oh God, I Wish I Was Home Tonight”
PERFORMER “Rod Stewart”
REM COMPOSER “”
INDEX 00 16:52:57
INDEX 01 16:53:37
TRACK 06 AUDIO
TITLE “Gi’ Me Wings”
PERFORMER “Rod Stewart”
REM COMPOSER “”
INDEX 00 21:55:50
INDEX 01 21:57:42
TRACK 07 AUDIO
TITLE “My Girl”
PERFORMER “Rod Stewart”
REM COMPOSER “”
INDEX 00 25:42:27
INDEX 01 25:45:60
TRACK 08 AUDIO
TITLE “She Won’t Dance With Me”
PERFORMER “Rod Stewart”
REM COMPOSER “”
INDEX 00 30:12:47
INDEX 01 30:14:12
TRACK 09 AUDIO
TITLE “Somebody Special”
PERFORMER “Rod Stewart”
REM COMPOSER “”
INDEX 00 32:41:62
INDEX 01 32:44:62
TRACK 10 AUDIO
TITLE “Say It Ain’t True”
PERFORMER “Rod Stewart”
REM COMPOSER “”
INDEX 00 37:12:32
INDEX 01 37:15:32


Spread the Download

Leave a Reply

Your email address will not be published. Required fields are marked *

Enter the text from the image below
 

This site uses Akismet to reduce spam. Learn how your comment data is processed.