Rod Stewart – Collection




Artist: Rod Stewart
Year: 2008
Genre: Rock
Notes: Discogs
Add. Notes:
Cover incl.: Yes
Encoder: FLAC
Bitrate: ~1000 kBit/s (44.1 kHz/16 Bit/s)
Log & Cue incl.: Yes
Size: 404 MB
Password: “slam” (without ” “)


All Downloads/Hosters are compatible

Download 1
KatFile.com
Turbobit.net
FileFactory.com
Rapidgator.net
Download 2
KatFile.com
Turbobit.net
FileFactory.com
Rapidgator.net

Tracklist:

CD1
1. I Got Mine
2. Mopper's Blues
3. Runaway
4. That Man
5. Come On Children
6. Just Like I Tread You
7. Don't You Tell Nobody
8. Hey Girl
9. My Mind's Eye
10. Come Back And Take This Hurt 
Off Me

CD2
1. Bright Lights Big City
2. Little Miss Understood
3. Keep Your Hands Off Her
4. Ain't That Lovin' You Baby
5. I Just Got Some
6. The Day Will Come
7. Donkey Rides A Penny A Glass
8. Baby Take Me
9. Why Does It Go On
10. Shake
11. Come Home Baby
12. Can I Get A Witness

EAC-Log, CUE-Sheed & NFO:

Click to open spoiler
Exact Audio Copy V1.1 from 23. June 2015

EAC extraction logfile from 6. November 2015, 20:38

Rod Stewart / Collection (Disc 1) (ORANGE236)

Used drive : PLEXTOR DVDR PX-891SA Adapter: 1 ID: 0

Read mode : Secure
Utilize accurate stream : Yes
Defeat audio cache : Yes
Make use of C2 pointers : No

Read offset correction : 6
Overread into Lead-In and Lead-Out : No
Fill up missing offset samples with silence : Yes
Delete leading and trailing silent blocks : No
Null samples used in CRC calculations : Yes
Used interface : Native Win32 interface for Win NT & 2000

Used output format : User Defined Encoder
Selected bitrate : 128 kBit/s
Quality : High
Add ID3 tag : No
Command line compressor : C:\Program Files (x86)\Exact Audio Copy\Flac\flac.exe
Additional command line options : -V -8 -T “Genre=%genre%” -T “Artist=%artist%” -T “Title=%title%” -T “Album=%albumtitle%” -T “Date=%year%” -T “Tracknumber=%tracknr%” -T “Comment=%comment%” %source%

TOC of the extracted CD

Track | Start | Length | Start sector | End sector
———————————————————
1 | 0:00.00 | 2:51.17 | 0 | 12841
2 | 2:51.17 | 2:43.46 | 12842 | 25112
3 | 5:34.63 | 2:36.00 | 25113 | 36812
4 | 8:10.63 | 2:09.11 | 36813 | 46498
5 | 10:19.74 | 4:16.71 | 46499 | 65769
6 | 14:36.70 | 2:23.27 | 65770 | 76521
7 | 17:00.22 | 3:56.29 | 76522 | 94250
8 | 20:56.51 | 2:12.00 | 94251 | 104150
9 | 23:08.51 | 1:59.04 | 104151 | 113079
10 | 25:07.55 | 2:08.59 | 113080 | 122738

Range status and errors

Selected range

Filename H:\dafnaplus\Rod Stewart – Collection\Disc 1\Rod Stewart – Collection (Disc 1) (ORANGE236).wav

Peak level 100.0 %
Extraction speed 6.4 X
Range quality 100.0 %
Test CRC B706B7A1
Copy CRC B706B7A1
Copy OK

No errors occurred

AccurateRip summary

Track 1 accurately ripped (confidence 2) [18EDC8DD] (AR v2)
Track 2 accurately ripped (confidence 2) [4BCED7EA] (AR v2)
Track 3 accurately ripped (confidence 2) [17A89301] (AR v2)
Track 4 accurately ripped (confidence 2) [99D46534] (AR v2)
Track 5 accurately ripped (confidence 2) [0DA26EA8] (AR v2)
Track 6 accurately ripped (confidence 2) [0FE2BDC9] (AR v2)
Track 7 accurately ripped (confidence 2) [56B06CC0] (AR v2)
Track 8 accurately ripped (confidence 2) [237EA21B] (AR v2)
Track 9 accurately ripped (confidence 2) [54B8363D] (AR v2)
Track 10 accurately ripped (confidence 2) [7EBB4F58] (AR v2)

All tracks accurately ripped

End of status report

—- CUETools DB Plugin V2.1.6

[CTDB TOCID: Iu0XRE9oNihaUw7NRj7uHVn.bng-] found
Submit result: Iu0XRE9oNihaUw7NRj7uHVn.bng- has been confirmed
Track | CTDB Status
1 | (3/4) Accurately ripped, or (1/4) differs in 56 samples @01:45:53-01:45:54
2 | (4/4) Accurately ripped
3 | (4/4) Accurately ripped
4 | (3/4) Accurately ripped, or (1/4) differs in 33 samples @01:47:28,01:47:72,01:48:08
5 | (3/4) Accurately ripped, or (1/4) differs in 12 samples @00:07:03,00:36:09-00:36:10
6 | (3/4) Accurately ripped, or (1/4) differs in 7 samples @01:00:54
7 | (3/4) Accurately ripped, or (1/4) differs in 44 samples @00:00:20
8 | (4/4) Accurately ripped
9 | (3/4) Accurately ripped, or (1/4) differs in 13 samples @01:12:50
10 | (3/4) Accurately ripped, or (1/4) differs in 5 samples @01:39:51

==== Log checksum 5F6993006AD1253614B87EDDD8F9307AC59308916C9E77DAE0B079A84398BC02 ====

Exact Audio Copy V1.1 from 23. June 2015

EAC extraction logfile from 6. November 2015, 21:09

Rod Stewart / Collection (Disc 2) (ORANGE236)

Used drive : PLEXTOR DVDR PX-891SA Adapter: 1 ID: 0

Read mode : Secure
Utilize accurate stream : Yes
Defeat audio cache : Yes
Make use of C2 pointers : No

Read offset correction : 6
Overread into Lead-In and Lead-Out : No
Fill up missing offset samples with silence : Yes
Delete leading and trailing silent blocks : No
Null samples used in CRC calculations : Yes
Used interface : Native Win32 interface for Win NT & 2000

Used output format : User Defined Encoder
Selected bitrate : 128 kBit/s
Quality : High
Add ID3 tag : No
Command line compressor : C:\Program Files (x86)\Exact Audio Copy\Flac\flac.exe
Additional command line options : -V -8 -T “Genre=%genre%” -T “Artist=%artist%” -T “Title=%title%” -T “Album=%albumtitle%” -T “Date=%year%” -T “Tracknumber=%tracknr%” -T “Comment=%comment%” %source%

TOC of the extracted CD

Track | Start | Length | Start sector | End sector
———————————————————
1 | 0:00.00 | 3:17.50 | 0 | 14824
2 | 3:17.50 | 3:57.52 | 14825 | 32651
3 | 7:15.27 | 2:02.59 | 32652 | 41860
4 | 9:18.11 | 2:32.67 | 41861 | 53327
5 | 11:51.03 | 3:37.16 | 53328 | 69618
6 | 15:28.19 | 2:38.62 | 69619 | 81530
7 | 18:07.06 | 3:13.30 | 81531 | 96035
8 | 21:20.36 | 2:09.58 | 96036 | 105768
9 | 23:30.19 | 2:46.15 | 105769 | 118233
10 | 26:16.34 | 2:38.35 | 118234 | 130118
11 | 28:54.69 | 2:37.66 | 130119 | 141959
12 | 31:32.60 | 3:31.32 | 141960 | 157816

Range status and errors

Selected range

Filename H:\dafnaplus\Rod Stewart – Collection\Disc 2\Rod Stewart – Collection (Disc 2) (ORANGE236).wav

Peak level 100.0 %
Extraction speed 2.6 X
Range quality 99.9 %
Test CRC 0F401523
Copy CRC 0F401523
Copy OK

No errors occurred

AccurateRip summary

Track 1 accurately ripped (confidence 3) [950E29D3] (AR v2)
Track 2 accurately ripped (confidence 3) [FD2C5218] (AR v2)
Track 3 accurately ripped (confidence 3) [0C1D3AFD] (AR v2)
Track 4 accurately ripped (confidence 3) [1CCF143C] (AR v2)
Track 5 accurately ripped (confidence 3) [21934575] (AR v2)
Track 6 accurately ripped (confidence 3) [67BECA86] (AR v2)
Track 7 accurately ripped (confidence 3) [2A247A0D] (AR v2)
Track 8 accurately ripped (confidence 3) [5E5B59B8] (AR v2)
Track 9 accurately ripped (confidence 3) [51098CE9] (AR v2)
Track 10 accurately ripped (confidence 3) [567FF06A] (AR v2)
Track 11 accurately ripped (confidence 3) [07E28FDF] (AR v2)
Track 12 accurately ripped (confidence 3) [76BAF72D] (AR v2)

All tracks accurately ripped

End of status report

—- CUETools DB Plugin V2.1.6

[CTDB TOCID: AOhsMJXscaPpYZV.NxiKmhnZvRM-] found
Submit result: AOhsMJXscaPpYZV.NxiKmhnZvRM- has been confirmed
Track | CTDB Status
1 | (3/3) Accurately ripped
2 | (3/3) Accurately ripped
3 | (3/3) Accurately ripped
4 | (3/3) Accurately ripped
5 | (3/3) Accurately ripped
6 | (3/3) Accurately ripped
7 | (3/3) Accurately ripped
8 | (3/3) Accurately ripped
9 | (3/3) Accurately ripped
10 | (3/3) Accurately ripped
11 | (3/3) Accurately ripped
12 | (3/3) Accurately ripped

==== Log checksum 08C7D553018290622BE3A6D7047BA73FE24E8A2EE2B1EACA5CA33532F3FB35BE ====

REM GENRE Beat
REM DATE 2008
REM DISCID 7906640A
REM COMMENT “ExactAudioCopy v1.1”
PERFORMER “Rod Stewart”
TITLE “Collection (Disc 1) (ORANGE236)”
FILE “Rod Stewart – Collection (Disc 1) (ORANGE236).flac” WAVE
TRACK 01 AUDIO
TITLE “I Got Mine”
PERFORMER “Rod Stewart”
INDEX 01 00:00:00
TRACK 02 AUDIO
TITLE “Mopper’s Blues”
PERFORMER “Rod Stewart”
INDEX 00 02:49:17
INDEX 01 02:51:17
TRACK 03 AUDIO
TITLE “Runaway”
PERFORMER “Rod Stewart”
INDEX 00 05:32:63
INDEX 01 05:34:63
TRACK 04 AUDIO
TITLE “That Man”
PERFORMER “Rod Stewart”
INDEX 00 08:08:63
INDEX 01 08:10:63
TRACK 05 AUDIO
TITLE “Come On Children”
PERFORMER “Rod Stewart”
INDEX 00 10:17:74
INDEX 01 10:19:74
TRACK 06 AUDIO
TITLE “Just Like I Treat You”
PERFORMER “Rod Stewart”
INDEX 00 14:34:70
INDEX 01 14:36:70
TRACK 07 AUDIO
TITLE “Don’t You Tell Nobody”
PERFORMER “Rod Stewart”
INDEX 00 16:58:22
INDEX 01 17:00:22
TRACK 08 AUDIO
TITLE “Hey Girl”
PERFORMER “Rod Stewart”
INDEX 00 20:54:51
INDEX 01 20:56:51
TRACK 09 AUDIO
TITLE “My Mind’s Eye”
PERFORMER “Rod Stewart”
INDEX 00 23:06:51
INDEX 01 23:08:51
TRACK 10 AUDIO
TITLE “Come Back And Take This Hurt Off Me”
PERFORMER “Rod Stewart”
INDEX 01 25:07:55

REM GENRE Beat
REM DATE 2008
REM DISCID A808380C
REM COMMENT “ExactAudioCopy v1.1”
PERFORMER “Rod Stewart”
TITLE “Collection (Disc 2) (ORANGE236)”
FILE “Rod Stewart – Collection (Disc 2) (ORANGE236).flac” WAVE
TRACK 01 AUDIO
TITLE “Bright Light Big City”
PERFORMER “Rod Stewart”
INDEX 01 00:00:00
TRACK 02 AUDIO
TITLE “Little Miss Understood”
PERFORMER “Rod Stewart”
INDEX 00 03:15:50
INDEX 01 03:17:50
TRACK 03 AUDIO
TITLE “Keep Your Hands Off Her”
PERFORMER “Rod Stewart”
INDEX 00 07:13:27
INDEX 01 07:15:27
TRACK 04 AUDIO
TITLE “Ain’t That Lovin’ You Baby”
PERFORMER “Rod Stewart”
INDEX 01 09:18:11
TRACK 05 AUDIO
TITLE “I Just Got Some”
PERFORMER “Rod Stewart”
INDEX 00 11:49:03
INDEX 01 11:51:03
TRACK 06 AUDIO
TITLE “The Day Will Come”
PERFORMER “Rod Stewart”
INDEX 00 15:26:19
INDEX 01 15:28:19
TRACK 07 AUDIO
TITLE “Donkey Rides A Penny Glass”
PERFORMER “Rod Stewart”
INDEX 00 18:05:06
INDEX 01 18:07:06
TRACK 08 AUDIO
TITLE “Baby Take Me”
PERFORMER “Rod Stewart”
INDEX 00 21:18:36
INDEX 01 21:20:36
TRACK 09 AUDIO
TITLE “Why Does It Go On”
PERFORMER “Rod Stewart”
INDEX 00 23:28:19
INDEX 01 23:30:19
TRACK 10 AUDIO
TITLE “Shake”
PERFORMER “Rod Stewart”
INDEX 00 26:14:34
INDEX 01 26:16:34
TRACK 11 AUDIO
TITLE “Come Home Baby”
PERFORMER “Rod Stewart”
INDEX 00 28:52:69
INDEX 01 28:54:69
TRACK 12 AUDIO
TITLE “Can Get A Witness”
PERFORMER “Rod Stewart”
INDEX 00 31:30:60
INDEX 01 31:32:60


Leave a Reply

Your email address will not be published. Required fields are marked *

This site uses Akismet to reduce spam. Learn how your comment data is processed.