Rod Stewart – Camouflage (Reissue)




[Total: 0    Average: 0/5]

Artist: Rod Stewart
Year: 1984
Genre: Rock
Notes: Discogs
Add. Notes: Reissue
Cover incl.: Yes
Encoder: FLAC
Bitrate: ~800 kBit/s (44.1 kHz/16 Bit/s)
Log & Cue incl.: Yes
Size: 416,7 MB
Password: “slam” (without ” “)


All Downloads/Hosters are compatible

Download 1
KatFile.com
Turbobit.net
FileFactory.com
Rapidgator.net
Download 2
KatFile.com
Turbobit.net
FileFactory.com
Rapidgator.net

Tracklist:

1 Infatuation 5:12
2 All Right Now 4:41
3 Some Guys Have All The Luck 4:32
4 Can We Still Be Friends 3:46
5 Bad For You 5:17
6 Heart Is On The Line 4:02
7 Camouflage 5:19
8 Trouble 4:42

EAC-Log, CUE-Sheed & NFO:

Click to open spoiler
Exact Audio Copy V1.0 beta 3 from 29. August 2011

EAC extraction logfile from 25. August 2015, 23:17

Rod Stewart / Camouflage (9 25095-2)

Used drive : SONY CD-RW CRX210E1 Adapter: 0 ID: 1

Read mode : Secure
Utilize accurate stream : Yes
Defeat audio cache : Yes
Make use of C2 pointers : No

Read offset correction : 6
Overread into Lead-In and Lead-Out : No
Fill up missing offset samples with silence : Yes
Delete leading and trailing silent blocks : No
Null samples used in CRC calculations : Yes
Used interface : Native Win32 interface for Win NT & 2000

Used output format : Internal WAV Routines
Sample format : 44.100 Hz; 16 Bit; Stereo

TOC of the extracted CD

Track | Start | Length | Start sector | End sector
———————————————————
1 | 0:00.32 | 5:14.40 | 32 | 23621
2 | 5:14.72 | 4:42.20 | 23622 | 44791
3 | 9:57.17 | 4:34.23 | 44792 | 65364
4 | 14:31.40 | 3:51.12 | 65365 | 82701
5 | 18:22.52 | 5:18.55 | 82702 | 106606
6 | 23:41.32 | 4:04.18 | 106607 | 124924
7 | 27:45.50 | 5:20.45 | 124925 | 148969
8 | 33:06.20 | 4:42.07 | 148970 | 170126

Range status and errors

Selected range

Filename D:\Ready.zp\Rod Stewart – Camouflage (9 25095-2).wav

Peak level 78.6 %
Extraction speed 14.2 X
Range quality 100.0 %
Test CRC CA773B8A
Copy CRC CA773B8A
Copy OK

No errors occurred

AccurateRip summary

Track 1 accurately ripped (confidence 3) [A900D5B8] (AR v2)
Track 2 accurately ripped (confidence 3) [69E84A0E] (AR v2)
Track 3 accurately ripped (confidence 3) [E2834F9F] (AR v2)
Track 4 accurately ripped (confidence 3) [AA862BDC] (AR v2)
Track 5 accurately ripped (confidence 3) [AD70F019] (AR v2)
Track 6 accurately ripped (confidence 3) [EFFADDFC] (AR v2)
Track 7 accurately ripped (confidence 3) [501D3EAE] (AR v2)
Track 8 accurately ripped (confidence 3) [B30A16CE] (AR v2)

All tracks accurately ripped

End of status report

==== Log checksum 704FFD1597E85DB0685A1A32BDD78E984BEB8AB4B8C9C8CD9AFECAC7F8B4FF1F ====

REM GENRE Rock
REM DATE 1984
REM DISCID 7308DC08
REM COMMENT “ExactAudioCopy v1.0b3”
PERFORMER “Rod Stewart”
TITLE “Camouflage (9 25095-2)”
FILE “Rod Stewart – Camouflage (9 25095-2).flac” WAVE
TRACK 01 AUDIO
TITLE “Infatuation”
PERFORMER “Rod Stewart”
INDEX 00 00:00:00
INDEX 01 00:00:32
TRACK 02 AUDIO
TITLE “All Right Now”
PERFORMER “Rod Stewart”
INDEX 00 05:14:42
INDEX 01 05:14:72
TRACK 03 AUDIO
TITLE “Some Guys Have All The Luck”
PERFORMER “Rod Stewart”
INDEX 00 09:56:22
INDEX 01 09:57:17
TRACK 04 AUDIO
TITLE “Can We still Be Friends”
PERFORMER “Rod Stewart”
INDEX 00 14:30:40
INDEX 01 14:31:40
TRACK 05 AUDIO
TITLE “Bad For You”
PERFORMER “Rod Stewart”
INDEX 00 18:19:52
INDEX 01 18:22:52
TRACK 06 AUDIO
TITLE “Heart Is On The Line”
PERFORMER “Rod Stewart”
INDEX 00 23:40:37
INDEX 01 23:41:32
TRACK 07 AUDIO
TITLE “Camouflage”
PERFORMER “Rod Stewart”
INDEX 00 27:44:35
INDEX 01 27:45:50
TRACK 08 AUDIO
TITLE “Trouble”
PERFORMER “Rod Stewart”
INDEX 00 33:04:70
INDEX 01 33:06:20


Spread the Download

Leave a Reply

Your email address will not be published. Required fields are marked *

Enter the text from the image below
 

This site uses Akismet to reduce spam. Learn how your comment data is processed.