Rod Stewart – Blondes Have More Fun (Japanese Edition)




No Cover available

Artist: Rod Stewart
Year: 1978/2009
Genre: Rock
Notes: Discogs
Add. Notes: Japanese Edition
Watch Songs on: YouTube
Cover incl.: Yes
Encoder: FLAC
Bitrate: ~900 kBit/s (44.1 kHz/16 Bit/s)
Log & Cue incl.: Yes/Yes
Size: 292,1 MB
Password: “slam” (without ” “)


All Downloads/Hosters are compatible

Download 1
KatFile.com
Turbobit.net
Rapidgator.net
FileFactory.com
Download 2
KatFile.com
Turbobit.net
Rapidgator.net
FileFactory.com

Tracklist:

1 Da Ya Think I'm Sexy? 5:28
2 Dirty Weekend 2:34
3 Ain't Love A Bitch 4:36
4 The Best Days Of My Life 4:20
5 Is That The Thanks I Get? 4:29
6 Attractive Female Wanted 4:15
7 Blondes (Have More Fun) 3:40
8 Last Summer 4:02
9 Standin' In The Shadows Of Love 4:24
10 Scarred And Scared 4:50

EAC-Log, CUE-Sheed & NFO:

Click to open spoiler
Exact Audio Copy V1.3 from 2. September 2016

EAC extraction logfile from 11. October 2017, 20:25

Rod Stewart / Blondes Have More Fun

Used drive : Optiarc DVD RW AD-7260S Adapter: 1 ID: 2

Read mode : Secure
Utilize accurate stream : Yes
Defeat audio cache : Yes
Make use of C2 pointers : No

Read offset correction : 48
Overread into Lead-In and Lead-Out : No
Fill up missing offset samples with silence : Yes
Delete leading and trailing silent blocks : No
Null samples used in CRC calculations : Yes
Used interface : Native Win32 interface for Win NT & 2000

Used output format : User Defined Encoder
Selected bitrate : 128 kBit/s
Quality : High
Add ID3 tag : No
Command line compressor : C:\Program Files\Exact Audio Copy\Flac\flac.exe
Additional command line options : -V -8 -T “Date=%year%” -T “Genre=%genre%” %source%

TOC of the extracted CD

Track | Start | Length | Start sector | End sector
———————————————————
1 | 0:00.00 | 5:31.25 | 0 | 24849
2 | 5:31.25 | 2:36.15 | 24850 | 36564
3 | 8:07.40 | 4:39.63 | 36565 | 57552
4 | 12:47.28 | 4:21.45 | 57553 | 77172
5 | 17:08.73 | 4:32.67 | 77173 | 97639
6 | 21:41.65 | 4:17.18 | 97640 | 116932
7 | 25:59.08 | 3:46.60 | 116933 | 133942
8 | 29:45.68 | 4:05.05 | 133943 | 152322
9 | 33:50.73 | 4:28.20 | 152323 | 172442
10 | 38:19.18 | 4:54.65 | 172443 | 194557

Range status and errors

Selected range

Filename M:\Slava Z\BHMF 1978\Rod Stewart – Blondes Have More Fun.wav

Peak level 100.0 %
Extraction speed 3.1 X
Range quality 100.0 %
Test CRC 14286600
Copy CRC 14286600
Copy OK

No errors occurred

AccurateRip summary

Track 1 accurately ripped (confidence 8) [FEAA21FB] (AR v2)
Track 2 accurately ripped (confidence 8) [F10C6A77] (AR v2)
Track 3 accurately ripped (confidence 8) [CDA6AF46] (AR v2)
Track 4 accurately ripped (confidence 8) [4C8C8064] (AR v2)
Track 5 accurately ripped (confidence 8) [1BB2E1B3] (AR v2)
Track 6 accurately ripped (confidence 8) [ED659473] (AR v2)
Track 7 accurately ripped (confidence 8) [C817C560] (AR v2)
Track 8 accurately ripped (confidence 8) [F03281E8] (AR v2)
Track 9 accurately ripped (confidence 8) [B6277077] (AR v2)
Track 10 accurately ripped (confidence 8) [E89BAAC9] (AR v2)

All tracks accurately ripped

End of status report

—- CUETools DB Plugin V2.1.6

[CTDB TOCID: 5kYEvfY9fiYeWluHNJf0hc0.A50-] found
Submit result: 5kYEvfY9fiYeWluHNJf0hc0.A50- has been confirmed
Track | CTDB Status
1 | (16/16) Accurately ripped
2 | (16/16) Accurately ripped
3 | (16/16) Accurately ripped
4 | (16/16) Accurately ripped
5 | (16/16) Accurately ripped
6 | (15/16) Accurately ripped
7 | (14/16) Accurately ripped
8 | (16/16) Accurately ripped
9 | (16/16) Accurately ripped
10 | (16/16) Accurately ripped

==== Log checksum 7A057303E2CB37D13B3C23FA2A12A3954B5F760289D2FCFE3833C6A9F5BF6B53 ====

REM GENRE Rock
REM DATE 1978
REM DISCID 720A220A
REM COMMENT “ExactAudioCopy v1.3”
PERFORMER “Rod Stewart”
TITLE “Blondes Have More Fun”
REM COMPOSER “”
FILE “Rod Stewart – Blondes Have More Fun.flac” WAVE
TRACK 01 AUDIO
TITLE “Da Ya Think I’m Sexy?”
PERFORMER “Rod Stewart”
REM COMPOSER “”
INDEX 01 00:00:00
TRACK 02 AUDIO
TITLE “Dirty Weekend”
PERFORMER “Rod Stewart”
REM COMPOSER “”
INDEX 01 05:31:25
TRACK 03 AUDIO
TITLE “Ain’t Love A Bitch”
PERFORMER “Rod Stewart”
REM COMPOSER “”
INDEX 01 08:07:40
TRACK 04 AUDIO
TITLE “The Best Day Of My Life”
PERFORMER “Rod Stewart”
REM COMPOSER “”
INDEX 01 12:47:28
TRACK 05 AUDIO
TITLE “Is That The Thanks I Get?”
PERFORMER “Rod Stewart”
REM COMPOSER “”
INDEX 01 17:08:73
TRACK 06 AUDIO
TITLE “Attractive Female Wanted”
PERFORMER “Rod Stewart”
REM COMPOSER “”
INDEX 00 21:40:35
INDEX 01 21:41:65
TRACK 07 AUDIO
TITLE “Blondes (Have More Fun)”
PERFORMER “Rod Stewart”
REM COMPOSER “”
INDEX 01 25:59:08
TRACK 08 AUDIO
TITLE “Last Summer”
PERFORMER “Rod Stewart”
REM COMPOSER “”
INDEX 01 29:45:68
TRACK 09 AUDIO
TITLE “Standin’ In The Shadows Of Love”
PERFORMER “Rod Stewart”
REM COMPOSER “”
INDEX 01 33:50:73
TRACK 10 AUDIO
TITLE “Scarred And Scared”
PERFORMER “Rod Stewart”
REM COMPOSER “”
INDEX 00 38:18:00
INDEX 01 38:19:18


0

Publication author

offline 9 hours

Chaos

3
Comments: 4Publics: 3424Registration: 02-02-2019
Spread the Download

Leave a Reply

Your email address will not be published. Required fields are marked *

Enter the text from the image below
 

This site uses Akismet to reduce spam. Learn how your comment data is processed.