Rod Stewart – Atlantic Crossing (Limited Japanese Edition)




Artist: Rod Stewart
Year: 1975/2009
Genre: Rock
Notes: Discogs
Add. Notes: Limited Japanese Edition
Cover incl.: Yes
Encoder: FLAC
Bitrate: ~1000 kBit/s (44.1 kHz/16 Bit/s)
Log & Cue incl.: Yes
Size: 313 MB
Password: “slam” (without ” “)


All Downloads/Hosters are compatible

Download 1
KatFile.com
Rapidgator.net
Turbobit.net
FileFactory.com
Download 2
KatFile.com
Rapidgator.net
Turbobit.net
FileFactory.com

Tracklist:

1 - Three Time Loser - 4:05
2 - Alright For An Hour - 4:18
3 - All In The Name Of Rock'N'Roll - 
5:01
4 - Drift Away - 3:44
5 - Stone Cold Sober - 4:12
6 - I Don't Want To Talk About It - 
4:48
7 - It's Not The Spotlight - 4:22
8 - This Old Heart Of Mine - 4:05
9 - Still Love You - 5:09
10 - Sailing - 4:37

EAC-Log, CUE-Sheed & NFO:

Click to open spoiler
Exact Audio Copy V1.3 from 2. September 2016

EAC extraction logfile from 11. October 2017, 23:54

Rod Stewart / Atlantic Crossing

Used drive : Optiarc DVD RW AD-7260S Adapter: 1 ID: 2

Read mode : Secure
Utilize accurate stream : Yes
Defeat audio cache : Yes
Make use of C2 pointers : No

Read offset correction : 48
Overread into Lead-In and Lead-Out : No
Fill up missing offset samples with silence : Yes
Delete leading and trailing silent blocks : No
Null samples used in CRC calculations : Yes
Used interface : Native Win32 interface for Win NT & 2000

Used output format : User Defined Encoder
Selected bitrate : 128 kBit/s
Quality : High
Add ID3 tag : No
Command line compressor : C:\Program Files\Exact Audio Copy\Flac\flac.exe
Additional command line options : -V -8 -T “Date=%year%” -T “Genre=%genre%” %source%

TOC of the extracted CD

Track | Start | Length | Start sector | End sector
———————————————————
1 | 0:00.00 | 4:05.28 | 0 | 18402
2 | 4:05.28 | 4:18.30 | 18403 | 37782
3 | 8:23.58 | 5:01.57 | 37783 | 60414
4 | 13:25.40 | 3:44.08 | 60415 | 77222
5 | 17:09.48 | 4:12.52 | 77223 | 96174
6 | 21:22.25 | 4:48.05 | 96175 | 117779
7 | 26:10.30 | 4:22.23 | 117780 | 137452
8 | 30:32.53 | 4:05.22 | 137453 | 155849
9 | 34:38.00 | 5:11.18 | 155850 | 179192
10 | 39:49.18 | 4:37.72 | 179193 | 200039

Range status and errors

Selected range

Filename M:\Slava Z\AC\Rod Stewart – Atlantic Crossing.wav

Peak level 100.0 %
Extraction speed 3.1 X
Range quality 100.0 %
Test CRC E6ED07B7
Copy CRC E6ED07B7
Copy OK

No errors occurred

AccurateRip summary

Track 1 accurately ripped (confidence 10) [0F3D9BAE] (AR v2)
Track 2 accurately ripped (confidence 10) [1C08B217] (AR v2)
Track 3 accurately ripped (confidence 10) [FBF62220] (AR v2)
Track 4 accurately ripped (confidence 10) [0570B695] (AR v2)
Track 5 accurately ripped (confidence 10) [0A82EAEE] (AR v2)
Track 6 accurately ripped (confidence 10) [7898B083] (AR v2)
Track 7 accurately ripped (confidence 10) [054DFD57] (AR v2)
Track 8 accurately ripped (confidence 10) [A69BE289] (AR v2)
Track 9 accurately ripped (confidence 10) [E14F5777] (AR v2)
Track 10 accurately ripped (confidence 10) [74C399C7] (AR v2)

All tracks accurately ripped

End of status report

—- CUETools DB Plugin V2.1.6

[CTDB TOCID: mZxIVs16QFO7vOL5wZO8uguvpvU-] found
Submit result: mZxIVs16QFO7vOL5wZO8uguvpvU- has been confirmed
Track | CTDB Status
1 | (23/23) Accurately ripped
2 | (23/23) Accurately ripped
3 | (23/23) Accurately ripped
4 | (23/23) Accurately ripped
5 | (23/23) Accurately ripped
6 | (23/23) Accurately ripped
7 | (23/23) Accurately ripped
8 | (23/23) Accurately ripped
9 | (23/23) Accurately ripped
10 | (22/23) Accurately ripped

==== Log checksum 3E7695D27A4F55A2CA188692D08DE3B92C8968EF75B9923F788E6D6A5738E9C7 ====

REM GENRE Rock
REM DATE 1975
REM DISCID 740A6B0A
REM COMMENT “ExactAudioCopy v1.3”
PERFORMER “Rod Stewart”
TITLE “Atlantic Crossing”
REM COMPOSER “”
FILE “Rod Stewart – Atlantic Crossing.flac” WAVE
TRACK 01 AUDIO
TITLE “Three Time Loser”
PERFORMER “Rod Stewart”
REM COMPOSER “”
INDEX 01 00:00:00
TRACK 02 AUDIO
TITLE “Alright For An Hour”
PERFORMER “Rod Stewart”
REM COMPOSER “”
INDEX 01 04:05:28
TRACK 03 AUDIO
TITLE “All In The Name Of Rock ‘N’ Roll”
PERFORMER “Rod Stewart”
REM COMPOSER “”
INDEX 01 08:23:58
TRACK 04 AUDIO
TITLE “Drift Away”
PERFORMER “Rod Stewart”
REM COMPOSER “”
INDEX 01 13:25:40
TRACK 05 AUDIO
TITLE “Stone Cold Sober”
PERFORMER “Rod Stewart”
REM COMPOSER “”
INDEX 01 17:09:48
TRACK 06 AUDIO
TITLE “I Don’t Want To Talk About It”
PERFORMER “Rod Stewart”
REM COMPOSER “”
INDEX 01 21:22:25
TRACK 07 AUDIO
TITLE “It’s Not The Spotlight”
PERFORMER “Rod Stewart”
REM COMPOSER “”
INDEX 01 26:10:30
TRACK 08 AUDIO
TITLE “This Old Heart Of Mine”
PERFORMER “Rod Stewart”
REM COMPOSER “”
INDEX 01 30:32:53
TRACK 09 AUDIO
TITLE “Still Love You”
PERFORMER “Rod Stewart”
REM COMPOSER “”
INDEX 01 34:38:00
TRACK 10 AUDIO
TITLE “Sailing”
PERFORMER “Rod Stewart”
REM COMPOSER “”
INDEX 00 39:47:38
INDEX 01 39:49:18


Leave a Reply

Your email address will not be published. Required fields are marked *

This site uses Akismet to reduce spam. Learn how your comment data is processed.