Rod Stewart – Another Country (Deluxe Edition)




No Cover available

Artist: Rod Stewart
Year: 2015
Genre: Rock
Notes: Discogs
Add. Notes: Deluxe Edition
Watch Songs on: YouTube
Cover incl.: Yes
Encoder: FLAC
Bitrate: ~1000 kBit/s (44.1 kHz/16 Bit/s)
Log & Cue incl.: Yes/Yes
Size: 496,8 MB
Password: “slam” (without ” “)


All Downloads/Hosters are compatible

Download 1
KatFile.com
Turbobit.net
FileFactory.com
Rapidgator.net
Download 2
KatFile.com
Turbobit.net
FileFactory.com
Rapidgator.net

Tracklist:

1 Love Is 
2 Please 
3 Walking In The Sunshine 
4 Love And Be Loved 
5 We Can Win 
6 Another Country 
7 Way Back Home 
8 Can We Stay Home Tonight? 
9 Batman Superman Spiderman 
10 The Drinking Song 
11 Hold The Line 
12 A Friend For Life 
13 Every Rock'N 'Roll Song To Me 
14 One Night With You 
15 In A Broken Dream 
16 Great Day 
17 Last Train Home

EAC-Log, CUE-Sheed & NFO:

Click to open spoiler
Exact Audio Copy V1.1 from 23. June 2015

EAC extraction logfile from 23. October 2015, 15:04

Rod Stewart / Another Country (Deluxe Edition)

Used drive : hp DVD-RAM SW830 Adapter: 1 ID: 0

Read mode : Secure
Utilize accurate stream : Yes
Defeat audio cache : Yes
Make use of C2 pointers : No

Read offset correction : 6
Overread into Lead-In and Lead-Out : No
Fill up missing offset samples with silence : Yes
Delete leading and trailing silent blocks : No
Null samples used in CRC calculations : Yes
Used interface : Native Win32 interface for Win NT & 2000

Used output format : User Defined Encoder
Selected bitrate : 896 kBit/s
Quality : High
Add ID3 tag : No
Command line compressor : C:\Program Files (x86)\Exact Audio Copy\Flac\flac.exe
Additional command line options : -V -8 %source%

TOC of the extracted CD

Track | Start | Length | Start sector | End sector
———————————————————
1 | 0:00.00 | 3:56.48 | 0 | 17747
2 | 3:56.48 | 4:23.65 | 17748 | 37537
3 | 8:20.38 | 4:32.23 | 37538 | 57960
4 | 12:52.61 | 2:56.39 | 57961 | 71199
5 | 15:49.25 | 5:01.70 | 71200 | 93844
6 | 20:51.20 | 3:30.69 | 93845 | 109663
7 | 24:22.14 | 4:36.70 | 109664 | 130433
8 | 28:59.09 | 4:05.50 | 130434 | 148858
9 | 33:04.59 | 3:34.56 | 148859 | 164964
10 | 36:39.40 | 3:39.10 | 164965 | 181399
11 | 40:18.50 | 4:07.34 | 181400 | 199958
12 | 44:26.09 | 4:44.39 | 199959 | 221297
13 | 49:10.48 | 3:20.58 | 221298 | 236355
14 | 52:31.31 | 3:35.67 | 236356 | 252547
15 | 56:07.23 | 4:15.55 | 252548 | 271727
16 | 60:23.03 | 3:39.56 | 271728 | 288208
17 | 64:02.59 | 4:36.21 | 288209 | 308929

Range status and errors

Selected range

Filename D:\Rod Stewart – Another Country (Deluxe Edition).wav

Peak level 100.0 %
Extraction speed 8.2 X
Range quality 100.0 %
Test CRC 4D35A214
Copy CRC 4D35A214
Copy OK

No errors occurred

AccurateRip summary

Track 1 not present in database
Track 2 not present in database
Track 3 not present in database
Track 4 not present in database
Track 5 not present in database
Track 6 not present in database
Track 7 not present in database
Track 8 not present in database
Track 9 not present in database
Track 10 not present in database
Track 11 not present in database
Track 12 not present in database
Track 13 not present in database
Track 14 not present in database
Track 15 not present in database
Track 16 not present in database
Track 17 not present in database

None of the tracks are present in the AccurateRip database

End of status report

==== Log checksum FB35206BC6FB1764F17EEAF9E82A3C764031B992C9CACD2E5114729111F2AA7F ====

REM GENRE Rock
REM DATE 2015
REM DISCID EF101711
REM COMMENT “ExactAudioCopy v1.1”
PERFORMER “Rod Stewart”
TITLE “Another Country (Deluxe Edition)”
FILE “Rod Stewart – Another Country (Deluxe Edition).flac” WAVE
TRACK 01 AUDIO
TITLE “Love Is ”
PERFORMER “Rod Stewart”
INDEX 01 00:00:00
TRACK 02 AUDIO
TITLE “Please ”
PERFORMER “Rod Stewart”
INDEX 00 03:55:38
INDEX 01 03:56:48
TRACK 03 AUDIO
TITLE “Walking In The Sunshine ”
PERFORMER “Rod Stewart”
INDEX 00 08:19:38
INDEX 01 08:20:38
TRACK 04 AUDIO
TITLE “Love And Be Loved ”
PERFORMER “Rod Stewart”
INDEX 00 12:51:61
INDEX 01 12:52:61
TRACK 05 AUDIO
TITLE “We Can Win ”
PERFORMER “Rod Stewart”
INDEX 00 15:48:01
INDEX 01 15:49:25
TRACK 06 AUDIO
TITLE “Another Country ”
PERFORMER “Rod Stewart”
INDEX 00 20:50:10
INDEX 01 20:51:20
TRACK 07 AUDIO
TITLE “Way Back Home ”
PERFORMER “Rod Stewart”
INDEX 00 24:20:69
INDEX 01 24:22:14
TRACK 08 AUDIO
TITLE “Can We Stay Home Tonight?”
PERFORMER “Rod Stewart”
INDEX 00 28:57:64
INDEX 01 28:59:09
TRACK 09 AUDIO
TITLE “Batman Superman Spiderman ”
PERFORMER “Rod Stewart”
INDEX 00 33:03:39
INDEX 01 33:04:59
TRACK 10 AUDIO
TITLE “The Drinking Song ”
PERFORMER “Rod Stewart”
INDEX 00 36:38:65
INDEX 01 36:39:40
TRACK 11 AUDIO
TITLE “Hold The Line ”
PERFORMER “Rod Stewart”
INDEX 00 40:17:40
INDEX 01 40:18:50
TRACK 12 AUDIO
TITLE “A Friend For Life ”
PERFORMER “Rod Stewart”
INDEX 00 44:24:09
INDEX 01 44:26:09
TRACK 13 AUDIO
TITLE “Every Rock ‘N’ Roll Song To Me ”
PERFORMER “Rod Stewart”
INDEX 00 49:08:73
INDEX 01 49:10:48
TRACK 14 AUDIO
TITLE “One Night With You ”
PERFORMER “Rod Stewart”
INDEX 00 52:29:66
INDEX 01 52:31:31
TRACK 15 AUDIO
TITLE “In A Broken Dream”
PERFORMER “Rod Stewart”
INDEX 00 56:05:48
INDEX 01 56:07:23
TRACK 16 AUDIO
TITLE “Great Day”
PERFORMER “Rod Stewart”
INDEX 00 60:22:37
INDEX 01 60:23:03
TRACK 17 AUDIO
TITLE “Last Train Home”
PERFORMER “Rod Stewart”
INDEX 00 64:01:72
INDEX 01 64:02:59


Leave a Reply

Your email address will not be published. Required fields are marked *

This site uses Akismet to reduce spam. Learn how your comment data is processed.