Rod Stewart – An Old Raincoat Won’t Ever Let You Down (Remastered)




Artist: Rod Stewart
Year: 1969/1995
Genre: Rock
Notes: Discogs
Add. Notes: Remastered
Cover incl.: Yes
Encoder: FLAC
Bitrate: ~800 kBit/s (44.1 kHz/16 Bit/s)
Log & Cue incl.: Yes
Size: 189,24 MB
Password: “slam” (without ” “)


All Downloads/Hosters are compatible

Download 1
Turbobit.net
KatFile.com
Rapidgator.net
NitroFlare.com
Download 2
Turbobit.net
KatFile.com
Rapidgator.net
NitroFlare.com

Tracklist:

1 - Street Fighting Man - 5:04
2 - Man Of Constant Sorrow - 2:30
3 - Blind Prayer - 4:36
4 - Handbags & Gladrags - 4:22
5 - An Old Raincoat Won't Ever Let You Down - 3:02
6 - I Wouldn't Ever Change A Thing - 4:45
7 - Cindy's Lament - 4:28
8 - Dirty Old Town - 3:40

EAC-Log, CUE-Sheed & NFO:

Click to open spoiler
Exact Audio Copy V1.1 from 23. June 2015

Отчёт EAC об извлечении, выполненном 10. сентября 2015, 12:33

Rod Stewart / An Old Raincoat Won’t Ever Let You Down (1969)

Дисковод: Optiarc DVD RW AD-7260S Adapter: 1 ID: 0

Режим чтения : Достоверность
Использование точного потока : Да
Отключение кэша аудио : Да
Использование указателей C2 : Нет

Коррекция смещения при чтении : 48
Способность читать области Lead-in и Lead-out : Нет
Заполнение пропущенных сэмплов тишиной : Да
Удаление блоков с тишиной в начале и конце : Нет
При вычислениях CRC использовались нулевые сэмплы : Да
Интерфейс : Встроенный Win32-интерфейс для Win NT/2000

Выходной формат : Внутренние WAV-операции
Формат сэмплов : 44.100 Гц; 16 бит; стерео

TOC извлечённого CD

Трек | Старт | Длительность | Начальный сектор | Конечный сектор
———————————————————————
1 | 0:00.32 | 5:08.60 | 32 | 23191
2 | 5:09.17 | 2:33.30 | 23192 | 34696
3 | 7:42.47 | 4:39.58 | 34697 | 55679
4 | 12:22.30 | 4:25.67 | 55680 | 75621
5 | 16:48.22 | 3:06.08 | 75622 | 89579
6 | 19:54.30 | 4:46.65 | 89580 | 111094
7 | 24:41.20 | 4:28.37 | 111095 | 131231
8 | 29:09.57 | 3:37.55 | 131232 | 147561

Характеристики диапазона извлечения и сообщения об ошибках

Выбранный диапазон

Имя файла C:\Users\Slava Z\Desktop\Rod Stewart – An Old Raincoat Won’t Ever Let You Down (1969).wav

Пиковый уровень 100.0 %
Скорость извлечения 3.3 X
Качество диапазона 100.0 %
CRC теста BFE91253
CRC копии BFE91253
Копирование… OK

Ошибок не произошло

AccurateRip: сводка

Трек 1 : извлечено точно (доверие 7) [87103BB9] (AR v2)
Трек 2 точность не определена (достоверность 8) [F99FFD0C], AccurateRip вернул [D4E5AECB] (AR v2)
Трек 3 : извлечено точно (доверие 7) [A98EC972] (AR v2)
Трек 4 : извлечено точно (доверие 7) [D20A08DA] (AR v2)
Трек 5 : извлечено точно (доверие 7) [BB2201AB] (AR v2)
Трек 6 : извлечено точно (доверие 7) [3D958BAF] (AR v2)
Трек 7 : извлечено точно (доверие 7) [280A5DE7] (AR v2)
Трек 8 : извлечено точно (доверие 7) [29ECE1BA] (AR v2)

7 трек(и) скопированы точно
1 трек(и) не удалось проверить на точность

Некоторые треки не прошли проверку на точность

Конец отчёта

==== Контрольная сумма отчёта B88E8621AC54C1ABFE69840A1BB13425701BCCE4CCF15F803D0B010E8C80C8E2 ====

REM GENRE Rock
REM DATE 1969
REM DISCID 5507AF08
REM COMMENT “ExactAudioCopy v1.1”
PERFORMER “Rod Stewart”
TITLE “An Old Raincoat Won’t Ever Let You Down”
FILE “Rod Stewart – An Old Raincoat Won’t Ever Let You Down (1969).flac” WAVE
TRACK 01 AUDIO
TITLE “Street Fighting Man”
PERFORMER “Rod Stewart”
INDEX 00 00:00:00
INDEX 01 00:00:32
TRACK 02 AUDIO
TITLE “Man Of Constant Sorrow”
PERFORMER “Rod Stewart”
INDEX 00 05:05:30
INDEX 01 05:09:17
TRACK 03 AUDIO
TITLE “Blind Prayer”
PERFORMER “Rod Stewart”
INDEX 00 07:41:52
INDEX 01 07:42:47
TRACK 04 AUDIO
TITLE “Handbags & Gladrags”
PERFORMER “Rod Stewart”
INDEX 00 12:19:50
INDEX 01 12:22:30
TRACK 05 AUDIO
TITLE “An Old Raincoat Won’t Ever Let You Down”
PERFORMER “Rod Stewart”
INDEX 00 16:45:52
INDEX 01 16:48:22
TRACK 06 AUDIO
TITLE “I Wouldn’t Ever Change A Thing”
PERFORMER “Rod Stewart”
INDEX 00 19:51:35
INDEX 01 19:54:30
TRACK 07 AUDIO
TITLE “Cindy’s Lament”
PERFORMER “Rod Stewart”
INDEX 00 24:38:27
INDEX 01 24:41:20
TRACK 08 AUDIO
TITLE “Dirty Old Town”
PERFORMER “Rod Stewart”
INDEX 00 29:07:05
INDEX 01 29:09:57


Leave a Reply

Your email address will not be published. Required fields are marked *

This site uses Akismet to reduce spam. Learn how your comment data is processed.