Rod Stewart – A Spanner In The Works




Artist: Rod Stewart
Year: 1995
Genre: Rock
Notes: Discogs
Add. Notes:
Cover incl.: Yes
Encoder: FLAC
Bitrate: ~900 kBit/s (44.1 kHz/16 Bit/s)
Log & Cue incl.: Yes
Size: 561,8 MB
Password: “slam” (without ” “)


All Downloads/Hosters are compatible

Download 1
KatFile.com
Turbobit.net
FileFactory.com
Rapidgator.net
Download 2
KatFile.com
Turbobit.net
FileFactory.com
Rapidgator.net

Tracklist:

1 Windy Town 5:13
2 The Downtown Lights 6:34
3 Leave Virginia Alone 4:07
4 Sweetheart Like You 4:54
5 This 5:19
6 Lady Luck 4:25
7 You're The Star 4:40
8 Muddy, Sam And Otis 4:42
9 Hang On St. Christopher 4:04
10 Delicious 4:44
11 Soothe Me 3:34
12 Purple Heather 4:51

EAC-Log, CUE-Sheed & NFO:

Click to open spoiler
Exact Audio Copy V1.0 beta 3 from 29. August 2011

EAC extraction logfile from 21. August 2015, 12:16

Rod Stewart / A Spanner In The Works (9362-45867-2)

Used drive : SONY CD-RW CRX210E1 Adapter: 0 ID: 1

Read mode : Secure
Utilize accurate stream : Yes
Defeat audio cache : Yes
Make use of C2 pointers : No

Read offset correction : 6
Overread into Lead-In and Lead-Out : No
Fill up missing offset samples with silence : Yes
Delete leading and trailing silent blocks : No
Null samples used in CRC calculations : Yes
Used interface : Native Win32 interface for Win NT & 2000

Used output format : Internal WAV Routines
Sample format : 44.100 Hz; 16 Bit; Stereo

TOC of the extracted CD

Track | Start | Length | Start sector | End sector
———————————————————
1 | 0:00.00 | 5:12.47 | 0 | 23446
2 | 5:12.47 | 6:33.40 | 23447 | 52961
3 | 11:46.12 | 4:07.30 | 52962 | 71516
4 | 15:53.42 | 4:54.28 | 71517 | 93594
5 | 20:47.70 | 5:19.20 | 93595 | 117539
6 | 26:07.15 | 4:25.30 | 117540 | 137444
7 | 30:32.45 | 4:40.00 | 137445 | 158444
8 | 35:12.45 | 4:42.35 | 158445 | 179629
9 | 39:55.05 | 4:04.20 | 179630 | 197949
10 | 43:59.25 | 4:43.45 | 197950 | 219219
11 | 48:42.70 | 3:33.65 | 219220 | 235259
12 | 52:16.60 | 4:56.27 | 235260 | 257486

Range status and errors

Selected range

Filename D:\Ready.zp\Rod Stewart – A Spanner In The Works (9362-45867-2).wav

Peak level 100.0 %
Extraction speed 16.3 X
Range quality 100.0 %
Test CRC 78CA5218
Copy CRC 78CA5218
Copy OK

No errors occurred

AccurateRip summary

Track 1 accurately ripped (confidence 89) [69C4051F] (AR v2)
Track 2 accurately ripped (confidence 91) [B4638BD3] (AR v2)
Track 3 accurately ripped (confidence 91) [E404440F] (AR v2)
Track 4 accurately ripped (confidence 91) [B69F2B70] (AR v2)
Track 5 accurately ripped (confidence 92) [A5D01FD3] (AR v2)
Track 6 accurately ripped (confidence 91) [AADC0E3E] (AR v2)
Track 7 accurately ripped (confidence 91) [B62A5BFE] (AR v2)
Track 8 accurately ripped (confidence 91) [F3B28A23] (AR v2)
Track 9 accurately ripped (confidence 91) [0031092E] (AR v2)
Track 10 accurately ripped (confidence 89) [BA0BCC3C] (AR v2)
Track 11 accurately ripped (confidence 91) [E8BDE955] (AR v2)
Track 12 accurately ripped (confidence 89) [CA08E191] (AR v2)

All tracks accurately ripped

End of status report

==== Log checksum 4E57D66D26C9AE4FC3168B59CEE087EFBF726C7A1CA2E2A743C4CE8374866F5D ====

REM GENRE Rock
REM DATE 1995
REM DISCID AB0D690C
REM COMMENT “ExactAudioCopy v1.0b3”
PERFORMER “Rod Stewart”
TITLE “A Spanner In The Works (9362-45867-2)”
FILE “Rod Stewart – A Spanner In The Works (9362-45867-2).flac” WAVE
TRACK 01 AUDIO
TITLE “Windy Town”
PERFORMER “Rod Stewart”
INDEX 01 00:00:00
TRACK 02 AUDIO
TITLE “The Downtown Lights”
PERFORMER “Rod Stewart”
INDEX 01 05:12:47
TRACK 03 AUDIO
TITLE “Leave Virginia Alone”
PERFORMER “Rod Stewart”
INDEX 01 11:46:12
TRACK 04 AUDIO
TITLE “Sweetheart Like You”
PERFORMER “Rod Stewart”
INDEX 01 15:53:42
TRACK 05 AUDIO
TITLE “This”
PERFORMER “Rod Stewart”
INDEX 01 20:47:70
TRACK 06 AUDIO
TITLE “Lady Luck”
PERFORMER “Rod Stewart”
INDEX 01 26:07:15
TRACK 07 AUDIO
TITLE “You’re The Star”
PERFORMER “Rod Stewart”
INDEX 01 30:32:45
TRACK 08 AUDIO
TITLE “Muddy, Sam And Otis”
PERFORMER “Rod Stewart”
INDEX 01 35:12:45
TRACK 09 AUDIO
TITLE “Hang On St. Christopher”
PERFORMER “Rod Stewart”
INDEX 01 39:55:05
TRACK 10 AUDIO
TITLE “Delicious”
PERFORMER “Rod Stewart”
INDEX 01 43:59:25
TRACK 11 AUDIO
TITLE “Soothe Me”
PERFORMER “Rod Stewart”
INDEX 01 48:42:70
TRACK 12 AUDIO
TITLE “Purple Heather”
PERFORMER “Rod Stewart”
INDEX 01 52:16:60


Leave a Reply

Your email address will not be published. Required fields are marked *

This site uses Akismet to reduce spam. Learn how your comment data is processed.