Rod Stewart – A Spanner In The Works (Japanese Edition)




Artist: Rod Stewart
Year: 1995
Genre: Rock
Notes: Discogs
Add. Notes: Japanese Edition
Cover incl.: Yes
Encoder: FLAC
Bitrate: ~900 kBit/s (44.1 kHz/16 Bit/s)
Log & Cue incl.: Yes
Size: 416 MB
Password: “slam” (without ” “)


All Downloads/Hosters are compatible

Download 1
KatFile.com
Turbobit.net
Rapidgator.net
Download 2
KatFile.com
Turbobit.net
Rapidgator.net

Tracklist:

1 - Windy Town - 5:13
2 - The Downtown Lights - 6:34
3 - Leave Virginia Alone - 4:07
4 - Sweetheart Like You - 4:54
5 - This - 5:19
6 - Lady Luck - 4:25
7 - You're The Star - 4:40
8 - Muddy, Sam And Otis - 4:43
9 - Hang On St. Christopher - 4:04
10 - Delicious - 4:44
11 - Soothe Me - 3:34
12 - Purple Heather - 4:59
Bonus Track
13 - Sailing - 4:38

EAC-Log, CUE-Sheed & NFO:

Click to open spoiler
Exact Audio Copy V1.3 from 2. September 2016

EAC extraction logfile from 12. October 2017, 9:01

Rod Stewart / A Spanner In The Works

Used drive : Optiarc DVD RW AD-7260S Adapter: 1 ID: 2

Read mode : Secure
Utilize accurate stream : Yes
Defeat audio cache : Yes
Make use of C2 pointers : No

Read offset correction : 48
Overread into Lead-In and Lead-Out : No
Fill up missing offset samples with silence : Yes
Delete leading and trailing silent blocks : No
Null samples used in CRC calculations : Yes
Used interface : Native Win32 interface for Win NT & 2000

Used output format : User Defined Encoder
Selected bitrate : 128 kBit/s
Quality : High
Add ID3 tag : No
Command line compressor : C:\Program Files\Exact Audio Copy\Flac\flac.exe
Additional command line options : -V -8 -T “Date=%year%” -T “Genre=%genre%” %source%

TOC of the extracted CD

Track | Start | Length | Start sector | End sector
———————————————————
1 | 0:00.00 | 5:12.52 | 0 | 23451
2 | 5:12.52 | 6:33.38 | 23452 | 52964
3 | 11:46.15 | 4:07.35 | 52965 | 71524
4 | 15:53.50 | 4:54.25 | 71525 | 93599
5 | 20:48.00 | 5:19.20 | 93600 | 117544
6 | 26:07.20 | 4:25.30 | 117545 | 137449
7 | 30:32.50 | 4:39.72 | 137450 | 158446
8 | 35:12.47 | 4:42.38 | 158447 | 179634
9 | 39:55.10 | 4:04.12 | 179635 | 197946
10 | 43:59.22 | 4:43.58 | 197947 | 219229
11 | 48:43.05 | 3:33.65 | 219230 | 235269
12 | 52:16.70 | 4:58.55 | 235270 | 257674
13 | 57:15.50 | 4:38.12 | 257675 | 278536

Range status and errors

Selected range

Filename M:\Slava Z\ASitW\Rod Stewart – A Spanner In The Works.wav

Peak level 100.0 %
Extraction speed 3.5 X
Range quality 100.0 %
Test CRC 4B80AC2A
Copy CRC 4B80AC2A
Copy OK

No errors occurred

AccurateRip summary

Track 1 accurately ripped (confidence 8) [6362E594] (AR v2)
Track 2 accurately ripped (confidence 8) [94804B00] (AR v2)
Track 3 accurately ripped (confidence 8) [E96E5AC0] (AR v2)
Track 4 accurately ripped (confidence 8) [DD014D72] (AR v2)
Track 5 accurately ripped (confidence 8) [CF0060F7] (AR v2)
Track 6 accurately ripped (confidence 7) [B5F89511] (AR v2)
Track 7 accurately ripped (confidence 8) [8EBDED2F] (AR v2)
Track 8 accurately ripped (confidence 8) [1190D239] (AR v2)
Track 9 accurately ripped (confidence 7) [9CEFC188] (AR v2)
Track 10 accurately ripped (confidence 7) [5C4BDDF5] (AR v2)
Track 11 accurately ripped (confidence 8) [CC5BA936] (AR v2)
Track 12 accurately ripped (confidence 8) [3D5639EB] (AR v2)
Track 13 accurately ripped (confidence 6) [72BF7162] (AR v2)

All tracks accurately ripped

End of status report

—- CUETools DB Plugin V2.1.6

[CTDB TOCID: KxA3obLkJOo5jb7aU57iZ0e1Dpo-] found
Submit result: KxA3obLkJOo5jb7aU57iZ0e1Dpo- has been confirmed
Track | CTDB Status
1 | (20/20) Accurately ripped
2 | (20/20) Accurately ripped
3 | (20/20) Accurately ripped
4 | (20/20) Accurately ripped
5 | (20/20) Accurately ripped
6 | (20/20) Accurately ripped
7 | (20/20) Accurately ripped
8 | (20/20) Accurately ripped
9 | (20/20) Accurately ripped
10 | (20/20) Accurately ripped
11 | (20/20) Accurately ripped
12 | (20/20) Accurately ripped
13 | (20/20) Accurately ripped

==== Log checksum 885FEB66768A2520FCC6A217F0074EEF192234DA0EEBC2B6AEC5657595CDCFF8 ====

REM GENRE Rock
REM DATE 1995
REM DISCID B50E810D
REM COMMENT “ExactAudioCopy v1.3”
PERFORMER “Rod Stewart”
TITLE “A Spanner In The Works”
REM COMPOSER “”
FILE “Rod Stewart – A Spanner In The Works.flac” WAVE
TRACK 01 AUDIO
TITLE “Windy Town”
PERFORMER “Rod Stewart”
REM COMPOSER “”
INDEX 01 00:00:00
TRACK 02 AUDIO
TITLE “The Downtown Lights”
PERFORMER “Rod Stewart”
REM COMPOSER “”
INDEX 01 05:12:52
TRACK 03 AUDIO
TITLE “Leave Virginia Alone”
PERFORMER “Rod Stewart”
REM COMPOSER “”
INDEX 01 11:46:15
TRACK 04 AUDIO
TITLE “Sweetheart Like You”
PERFORMER “Rod Stewart”
REM COMPOSER “”
INDEX 01 15:53:50
TRACK 05 AUDIO
TITLE “This”
PERFORMER “Rod Stewart”
REM COMPOSER “”
INDEX 01 20:48:00
TRACK 06 AUDIO
TITLE “Lady Luck”
PERFORMER “Rod Stewart”
REM COMPOSER “”
INDEX 01 26:07:20
TRACK 07 AUDIO
TITLE “You’re The Star”
PERFORMER “Rod Stewart”
REM COMPOSER “”
INDEX 01 30:32:50
TRACK 08 AUDIO
TITLE “Muddy, Sam And Otis”
PERFORMER “Rod Stewart”
REM COMPOSER “”
INDEX 01 35:12:47
TRACK 09 AUDIO
TITLE “Hang On St. Christopher”
PERFORMER “Rod Stewart”
REM COMPOSER “”
INDEX 01 39:55:10
TRACK 10 AUDIO
TITLE “Delicious”
PERFORMER “Rod Stewart”
REM COMPOSER “”
INDEX 01 43:59:22
TRACK 11 AUDIO
TITLE “Soothe Me”
PERFORMER “Rod Stewart”
REM COMPOSER “”
INDEX 01 48:43:05
TRACK 12 AUDIO
TITLE “Purple Heather”
PERFORMER “Rod Stewart”
REM COMPOSER “”
INDEX 01 52:16:70
TRACK 13 AUDIO
TITLE “Sailing (Bonus Tracks)”
PERFORMER “Rod Stewart”
REM COMPOSER “”
INDEX 00 57:13:12
INDEX 01 57:15:50


Leave a Reply

Your email address will not be published. Required fields are marked *

This site uses Akismet to reduce spam. Learn how your comment data is processed.