Rod Stewart – A Night On The Town (Limited Remastered Japanese Edition)




[Total: 0    Average: 0/5]

Artist: Rod Stewart
Year: 1976/2009
Genre: Rock
Notes: Discogs
Add. Notes: Limited Remastered Japanese Edition
Cover incl.: Yes
Encoder: FLAC
Bitrate: ~1000 kBit/s (44.1 kHz/16 Bit/s)
Log & Cue incl.: Yes
Size: 289,82 MB
Password: “slam” (without ” “)


All Downloads/Hosters are compatible

Download 1
Share-online.biz
KatFile.com
Rapidgator.net
Mexa.sh
Download 2
Share-online.biz
KatFile.com
Rapidgator.net
Mexa.sh

Tracklist:

Slow Half
1 - Tonight's The Night (Gonna Be Allright) - 3:55
2 - The First Cut Is The Deepest - 4:38
3 - Fool For You - 3:50
4 - The Killing Of Georgie (Part I And II) - 6:31
Fast Half
5 - The Ball Trap - 4:40
6 - Pretty Flamingo - 3:27
7 - Big Bayou - 3:56
8 - The Wild Side Of Life - 5:05
9 - Trade Winds - 5:17

EAC-Log, CUE-Sheed & NFO:

Click to open spoiler
Exact Audio Copy V1.3 from 2. September 2016

EAC extraction logfile from 12. October 2017, 1:14

Rod Stewart / A Night On The Town

Used drive : Optiarc DVD RW AD-7260S Adapter: 1 ID: 2

Read mode : Secure
Utilize accurate stream : Yes
Defeat audio cache : Yes
Make use of C2 pointers : No

Read offset correction : 48
Overread into Lead-In and Lead-Out : No
Fill up missing offset samples with silence : Yes
Delete leading and trailing silent blocks : No
Null samples used in CRC calculations : Yes
Used interface : Native Win32 interface for Win NT & 2000

Used output format : User Defined Encoder
Selected bitrate : 128 kBit/s
Quality : High
Add ID3 tag : No
Command line compressor : C:\Program Files\Exact Audio Copy\Flac\flac.exe
Additional command line options : -V -8 -T “Date=%year%” -T “Genre=%genre%” %source%

TOC of the extracted CD

Track | Start | Length | Start sector | End sector
———————————————————
1 | 0:00.00 | 3:55.13 | 0 | 17637
2 | 3:55.13 | 4:31.60 | 17638 | 38022
3 | 8:26.73 | 3:48.47 | 38023 | 55169
4 | 12:15.45 | 6:28.45 | 55170 | 84314
5 | 18:44.15 | 4:37.48 | 84315 | 105137
6 | 23:21.63 | 3:27.25 | 105138 | 120687
7 | 26:49.13 | 3:53.65 | 120688 | 138227
8 | 30:43.03 | 5:09.45 | 138228 | 161447
9 | 35:52.48 | 5:17.70 | 161448 | 185292

Range status and errors

Selected range

Filename M:\Slava Z\aNotT\Rod Stewart – A Night On The Town.wav

Peak level 100.0 %
Extraction speed 3.0 X
Range quality 100.0 %
Test CRC 411F500A
Copy CRC 411F500A
Copy OK

No errors occurred

AccurateRip summary

Track 1 accurately ripped (confidence 5) [BF7AA824] (AR v2)
Track 2 accurately ripped (confidence 5) [81CDFBD8] (AR v2)
Track 3 accurately ripped (confidence 5) [C0AC5851] (AR v2)
Track 4 accurately ripped (confidence 5) [9A7E2274] (AR v2)
Track 5 accurately ripped (confidence 5) [273811DB] (AR v2)
Track 6 accurately ripped (confidence 5) [54F9BE7C] (AR v2)
Track 7 accurately ripped (confidence 5) [E874201C] (AR v2)
Track 8 accurately ripped (confidence 5) [AB837CBA] (AR v2)
Track 9 accurately ripped (confidence 5) [C2F5A1DD] (AR v2)

All tracks accurately ripped

End of status report

—- CUETools DB Plugin V2.1.6

[CTDB TOCID: .m5rBQNeVAUTKPAD3nOJikzVpyA-] found
Submit result: .m5rBQNeVAUTKPAD3nOJikzVpyA- has been confirmed
Track | CTDB Status
1 | (14/14) Accurately ripped
2 | (14/14) Accurately ripped
3 | (14/14) Accurately ripped
4 | (14/14) Accurately ripped
5 | (14/14) Accurately ripped
6 | (14/14) Accurately ripped
7 | (14/14) Accurately ripped
8 | (14/14) Accurately ripped
9 | (14/14) Accurately ripped

==== Log checksum F6AC84D82D4CE60E428A94FFE859AD9CD59EB30397AABAECA5D956C4BF299CE8 ====

REM GENRE Rock
REM DATE 1976
REM DISCID 6509A609
REM COMMENT “ExactAudioCopy v1.3”
PERFORMER “Rod Stewart”
TITLE “A Night On The Town”
REM COMPOSER “”
FILE “Rod Stewart – A Night On The Town.flac” WAVE
TRACK 01 AUDIO
TITLE “Tonight’s The Night”
PERFORMER “Rod Stewart”
REM COMPOSER “”
INDEX 01 00:00:00
TRACK 02 AUDIO
TITLE “The First Cut Is The Deepest”
PERFORMER “Rod Stewart”
REM COMPOSER “”
INDEX 01 03:55:13
TRACK 03 AUDIO
TITLE “Fool For You”
PERFORMER “Rod Stewart”
REM COMPOSER “”
INDEX 01 08:26:73
TRACK 04 AUDIO
TITLE “The Killing Of Georgie (Part 1 & 2)”
PERFORMER “Rod Stewart”
REM COMPOSER “”
INDEX 01 12:15:45
TRACK 05 AUDIO
TITLE “The Balltrap”
PERFORMER “Rod Stewart”
REM COMPOSER “”
INDEX 01 18:44:15
TRACK 06 AUDIO
TITLE “Pretty Flamingo”
PERFORMER “Rod Stewart”
REM COMPOSER “”
INDEX 00 23:18:60
INDEX 01 23:21:63
TRACK 07 AUDIO
TITLE “Big Bayou”
PERFORMER “Rod Stewart”
REM COMPOSER “”
INDEX 01 26:49:13
TRACK 08 AUDIO
TITLE “The Wild Side Of Life”
PERFORMER “Rod Stewart”
REM COMPOSER “”
INDEX 01 30:43:03
TRACK 09 AUDIO
TITLE “Trade Winds”
PERFORMER “Rod Stewart”
REM COMPOSER “”
INDEX 01 35:52:48


Spread the Download

Leave a Reply

Your email address will not be published. Required fields are marked *

Enter the text from the image below
 

This site uses Akismet to reduce spam. Learn how your comment data is processed.