Rise Against – The Unraveling (Remastered)




[Total: 0    Average: 0/5]

Artist: Rise Against
Year: 2001/2005
Genre: Rock
Notes: Discogs
Add. Notes: Remastered
Cover incl.: Yes
Encoder: FLAC
Bitrate: ~1100 kBit/s (44.1 kHz/16 Bit/s)
Log & Cue incl.: Yes
Size: 307,88 MB
Password: “slam” (without ” “)


All Downloads/Hosters are compatible

Download 1
Share-online.biz
KatFile.com
Rapidgator.net
Turbobit.net
Download 2
Share-online.biz
KatFile.com
Rapidgator.net
Turbobit.net

Tracklist:

1 - Alive & Well - 2:06
2 - My Life Inside Your Heart - 3:02
3 - Great Awakening - 1:35
4 - Six Ways 'Til Sunday - 2:36
5 - 401 Kill - 3:19
6 - The Art Of Losing - 1:50
7 - Remains Of Summer Memories - 1:17
8 - The Unraveling - 3:12
9 - Reception Fades - 2:10
10 - Stained Glass And Marble - 1:36
11 - Everchanging - 3:47
12 - Sometimes Selling Out Is Giving Up - 1:09
13 - 3 Day Weekend - 1:03
14 - 1000 Good Intentions - 3:07
15 - Weight Of Time - 2:00
16 - Faint Resemblance - 2:51
17 - Join The Ranks - 1:26
18 - Gethsemane - 2:30

EAC-Log, CUE-Sheed & NFO:

Click to open spoiler
Exact Audio Copy V1.0 beta 3 from 29. August 2011

EAC extraction logfile from 25. March 2018, 13:52

Rise Against / The Unraveling

Used drive : PIONEER BD-RW BDR-209D Adapter: 2 ID: 0

Read mode : Secure
Utilize accurate stream : Yes
Defeat audio cache : Yes
Make use of C2 pointers : No

Read offset correction : 667
Overread into Lead-In and Lead-Out : No
Fill up missing offset samples with silence : Yes
Delete leading and trailing silent blocks : No
Null samples used in CRC calculations : Yes
Used interface : Native Win32 interface for Win NT & 2000
Gap handling : Appended to previous track

Used output format : User Defined Encoder
Selected bitrate : 1024 kBit/s
Quality : High
Add ID3 tag : No
Command line compressor : C:\Program Files (x86)\Exact Audio Copy\Flac\flac.exe
Additional command line options : -8 -e -p -V -T “ARTIST=%artist%” -T “TITLE=%title%” -T “ALBUM=%albumtitle%” -T “DATE=%year%” -T “TRACKNUMBER=%tracknr%” -T “GENRE=%genre%” -T “PERFORMER=%albuminterpret%” -T “COMPOSER=%composer%” %haslyrics%–tag-from-file=LYRICS=”%lyricsfile%”%haslyrics% -T “ALBUMARTIST=%albumartist%” -T “DISCNUMBER=%cdnumber%” -T “TOTALDISCS=%totalcds%” -T “TOTALTRACKS=%numtracks%” -T “COMMENT=%comment%” %source% -o %dest%

TOC of the extracted CD

Track | Start | Length | Start sector | End sector
———————————————————
1 | 0:00.00 | 2:06.30 | 0 | 9479
2 | 2:06.30 | 3:02.07 | 9480 | 23136
3 | 5:08.37 | 1:35.50 | 23137 | 30311
4 | 6:44.12 | 2:36.10 | 30312 | 42021
5 | 9:20.22 | 3:19.08 | 42022 | 56954
6 | 12:39.30 | 1:50.42 | 56955 | 65246
7 | 14:29.72 | 1:17.23 | 65247 | 71044
8 | 15:47.20 | 3:12.52 | 71045 | 85496
9 | 18:59.72 | 2:10.00 | 85497 | 95246
10 | 21:09.72 | 1:36.28 | 95247 | 102474
11 | 22:46.25 | 3:47.02 | 102475 | 119501
12 | 26:33.27 | 1:09.43 | 119502 | 124719
13 | 27:42.70 | 1:03.02 | 124720 | 129446
14 | 28:45.72 | 3:07.50 | 129447 | 143521
15 | 31:53.47 | 2:00.23 | 143522 | 152544
16 | 33:53.70 | 2:51.00 | 152545 | 165369
17 | 36:44.70 | 1:26.57 | 165370 | 171876
18 | 38:11.52 | 2:30.40 | 171877 | 183166

Track 1

Filename C:\EACRips\Rise Against – The Unraveling (2000) {FAT 695-2 RE RM CD} [FLAC]\01 – Alive and Well.wav

Pre-gap length 0:00:02.00

Peak level 96.6 %
Extraction speed 4.0 X
Track quality 100.0 %
Test CRC 4D27E0DD
Copy CRC 4D27E0DD
Accurately ripped (confidence 12) [4C03E7D3] (AR v2)
Copy OK

Track 2

Filename C:\EACRips\Rise Against – The Unraveling (2000) {FAT 695-2 RE RM CD} [FLAC]\02 – My Life Inside Your Heart.wav

Peak level 96.6 %
Extraction speed 4.4 X
Track quality 100.0 %
Test CRC AE689ED0
Copy CRC AE689ED0
Accurately ripped (confidence 12) [C23CD903] (AR v2)
Copy OK

Track 3

Filename C:\EACRips\Rise Against – The Unraveling (2000) {FAT 695-2 RE RM CD} [FLAC]\03 – Great Awakening.wav

Peak level 96.6 %
Extraction speed 4.2 X
Track quality 100.0 %
Test CRC F404A5CD
Copy CRC F404A5CD
Accurately ripped (confidence 12) [404864AE] (AR v2)
Copy OK

Track 4

Filename C:\EACRips\Rise Against – The Unraveling (2000) {FAT 695-2 RE RM CD} [FLAC]\04 – Six Ways ‘Til Sunday.wav

Peak level 96.6 %
Extraction speed 4.9 X
Track quality 100.0 %
Test CRC 72A61A46
Copy CRC 72A61A46
Accurately ripped (confidence 12) [8FC72E66] (AR v2)
Copy OK

Track 5

Filename C:\EACRips\Rise Against – The Unraveling (2000) {FAT 695-2 RE RM CD} [FLAC]\05 – 401 Kill.wav

Peak level 96.6 %
Extraction speed 5.4 X
Track quality 100.0 %
Test CRC 8E686B17
Copy CRC 8E686B17
Accurately ripped (confidence 12) [79EF3C66] (AR v2)
Copy OK

Track 6

Filename C:\EACRips\Rise Against – The Unraveling (2000) {FAT 695-2 RE RM CD} [FLAC]\06 – The Art of Losing.wav

Peak level 96.6 %
Extraction speed 4.0 X
Track quality 99.9 %
Test CRC FFD8FE16
Copy CRC FFD8FE16
Accurately ripped (confidence 12) [803D0760] (AR v2)
Copy OK

Track 7

Filename C:\EACRips\Rise Against – The Unraveling (2000) {FAT 695-2 RE RM CD} [FLAC]\07 – Remains of Summer Memories.wav

Peak level 96.6 %
Extraction speed 4.6 X
Track quality 100.0 %
Test CRC E08C0C75
Copy CRC E08C0C75
Accurately ripped (confidence 12) [91F784C8] (AR v2)
Copy OK

Track 8

Filename C:\EACRips\Rise Against – The Unraveling (2000) {FAT 695-2 RE RM CD} [FLAC]\08 – The Unraveling.wav

Peak level 96.6 %
Extraction speed 6.0 X
Track quality 100.0 %
Test CRC AB34C9FE
Copy CRC AB34C9FE
Accurately ripped (confidence 12) [17EB4A7F] (AR v2)
Copy OK

Track 9

Filename C:\EACRips\Rise Against – The Unraveling (2000) {FAT 695-2 RE RM CD} [FLAC]\09 – Reception Fades.wav

Peak level 96.6 %
Extraction speed 5.7 X
Track quality 100.0 %
Test CRC 30B896C2
Copy CRC 30B896C2
Accurately ripped (confidence 12) [4C39FED3] (AR v2)
Copy OK

Track 10

Filename C:\EACRips\Rise Against – The Unraveling (2000) {FAT 695-2 RE RM CD} [FLAC]\10 – Stained Glass and Marble.wav

Peak level 96.6 %
Extraction speed 5.4 X
Track quality 100.0 %
Test CRC 8D6B3828
Copy CRC 8D6B3828
Accurately ripped (confidence 12) [1F3C000B] (AR v2)
Copy OK

Track 11

Filename C:\EACRips\Rise Against – The Unraveling (2000) {FAT 695-2 RE RM CD} [FLAC]\11 – Everchanging.wav

Peak level 96.6 %
Extraction speed 6.7 X
Track quality 100.0 %
Test CRC 452DCBCE
Copy CRC 452DCBCE
Accurately ripped (confidence 12) [D1599A5B] (AR v2)
Copy OK

Track 12

Filename C:\EACRips\Rise Against – The Unraveling (2000) {FAT 695-2 RE RM CD} [FLAC]\12 – Sometimes Selling Out is Giving Up.wav

Peak level 96.6 %
Extraction speed 5.1 X
Track quality 100.0 %
Test CRC B3E4A0E3
Copy CRC B3E4A0E3
Accurately ripped (confidence 12) [58632729] (AR v2)
Copy OK

Track 13

Filename C:\EACRips\Rise Against – The Unraveling (2000) {FAT 695-2 RE RM CD} [FLAC]\13 – 3 Day Weekend.wav

Peak level 96.6 %
Extraction speed 5.0 X
Track quality 100.0 %
Test CRC 954B548B
Copy CRC 954B548B
Accurately ripped (confidence 12) [5FCDF3C7] (AR v2)
Copy OK

Track 14

Filename C:\EACRips\Rise Against – The Unraveling (2000) {FAT 695-2 RE RM CD} [FLAC]\14 – 1000 Good Intentions.wav

Peak level 100.0 %
Extraction speed 6.8 X
Track quality 100.0 %
Test CRC 10A301B0
Copy CRC 10A301B0
Accurately ripped (confidence 11) [B7EAC3FA] (AR v2)
Copy OK

Track 15

Filename C:\EACRips\Rise Against – The Unraveling (2000) {FAT 695-2 RE RM CD} [FLAC]\15 – Weight of Time.wav

Peak level 100.0 %
Extraction speed 6.4 X
Track quality 100.0 %
Test CRC 906F2B05
Copy CRC 906F2B05
Accurately ripped (confidence 12) [43AAE144] (AR v2)
Copy OK

Track 16

Filename C:\EACRips\Rise Against – The Unraveling (2000) {FAT 695-2 RE RM CD} [FLAC]\16 – Faint Resemblance.wav

Peak level 96.6 %
Extraction speed 6.0 X
Track quality 99.9 %
Test CRC DF65FABD
Copy CRC DF65FABD
Accurately ripped (confidence 12) [708F837D] (AR v2)
Copy OK

Track 17

Filename C:\EACRips\Rise Against – The Unraveling (2000) {FAT 695-2 RE RM CD} [FLAC]\17 – Join the Ranks.wav

Pre-gap length 0:00:01.77

Peak level 96.6 %
Extraction speed 6.0 X
Track quality 100.0 %
Test CRC 77C0A206
Copy CRC 77C0A206
Accurately ripped (confidence 12) [0137953B] (AR v2)
Copy OK

Track 18

Filename C:\EACRips\Rise Against – The Unraveling (2000) {FAT 695-2 RE RM CD} [FLAC]\18 – Gethsemane.wav

Peak level 96.6 %
Extraction speed 7.2 X
Track quality 100.0 %
Test CRC 9FF6CE4B
Copy CRC 9FF6CE4B
Accurately ripped (confidence 12) [AC378BD7] (AR v2)
Copy OK

All tracks accurately ripped

No errors occurred

End of status report

—- CUETools DB Plugin V2.1.3

[CTDB TOCID: g7CY0YqVbsK0rTeaidiiKV7sj0Q-] found, Submit result: g7CY0YqVbsK0rTeaidiiKV7sj0Q- has been confirmed
[ae5a81d9] (186/192) Accurately ripped
[63b3ef27] (001/192) No match
[afedfdc7] (001/192) No match
[787e8a9b] (001/192) No match
[cbe251aa] (001/192) No match
[4bf1b137] (001/192) No match
[cc2b9eb2] (001/192) No match

==== Log checksum 87D79B7F48B4D3320284318FD96738ABA2E368959C32DAB9E5A2CDDCB9501485 ====

REM DATE 2001
REM DISCID EA098A12
PERFORMER “Rise Against”
TITLE “The Unraveling”
REM DISCNUMBER 1
REM TOTALDISCS 1
FILE “01 Alive and Well.m4a” WAVE
TRACK 01 AUDIO
PERFORMER “Rise Against”
TITLE “Alive and Well”
INDEX 01 00:00:00
FILE “02 My Life Inside Your Heart.m4a” WAVE
TRACK 02 AUDIO
PERFORMER “Rise Against”
TITLE “My Life Inside Your Heart”
INDEX 01 00:00:00
FILE “03 Great Awakening.m4a” WAVE
TRACK 03 AUDIO
PERFORMER “Rise Against”
TITLE “Great Awakening”
INDEX 01 00:00:00
FILE “04 Six Ways ’til Sunday.m4a” WAVE
TRACK 04 AUDIO
PERFORMER “Rise Against”
TITLE “Six Ways ’til Sunday”
INDEX 01 00:00:00
FILE “05 401 Kill.m4a” WAVE
TRACK 05 AUDIO
PERFORMER “Rise Against”
TITLE “401 Kill”
INDEX 01 00:00:00
FILE “06 The Art of Losing.m4a” WAVE
TRACK 06 AUDIO
PERFORMER “Rise Against”
TITLE “The Art of Losing”
INDEX 01 00:00:00
FILE “07 Remains of Summer Memories.m4a” WAVE
TRACK 07 AUDIO
PERFORMER “Rise Against”
TITLE “Remains of Summer Memories”
INDEX 01 00:00:00
FILE “08 The Unraveling.m4a” WAVE
TRACK 08 AUDIO
PERFORMER “Rise Against”
TITLE “The Unraveling”
INDEX 01 00:00:00
FILE “09 Reception Fades.m4a” WAVE
TRACK 09 AUDIO
PERFORMER “Rise Against”
TITLE “Reception Fades”
INDEX 01 00:00:00
FILE “10 Stained Glass and Marble.m4a” WAVE
TRACK 10 AUDIO
PERFORMER “Rise Against”
TITLE “Stained Glass and Marble”
INDEX 01 00:00:00
FILE “11 Everchanging.m4a” WAVE
TRACK 11 AUDIO
PERFORMER “Rise Against”
TITLE “Everchanging”
INDEX 01 00:00:00
FILE “12 Sometimes Selling Out Is Giving Up.m4a” WAVE
TRACK 12 AUDIO
PERFORMER “Rise Against”
TITLE “Sometimes Selling Out Is Giving Up”
INDEX 01 00:00:00
FILE “13 3 Day Weekend.m4a” WAVE
TRACK 13 AUDIO
PERFORMER “Rise Against”
TITLE “3 Day Weekend”
INDEX 01 00:00:00
FILE “14 1000 Good Intentions.m4a” WAVE
TRACK 14 AUDIO
PERFORMER “Rise Against”
TITLE “1000 Good Intentions”
INDEX 01 00:00:00
FILE “15 Weight of Time.m4a” WAVE
TRACK 15 AUDIO
PERFORMER “Rise Against”
TITLE “Weight of Time”
INDEX 01 00:00:00
FILE “16 Faint Resemblance.m4a” WAVE
TRACK 16 AUDIO
PERFORMER “Rise Against”
TITLE “Faint Resemblance”
INDEX 01 00:00:00
TRACK 17 AUDIO
PERFORMER “Rise Against”
TITLE “Join the Ranks”
INDEX 00 02:49:17
FILE “17 Join the Ranks.m4a” WAVE
INDEX 01 00:00:00
FILE “18 Gethsemane.m4a” WAVE
TRACK 18 AUDIO
PERFORMER “Rise Against”
TITLE “Gethsemane”
INDEX 01 00:00:00


Spread the Download

Leave a Reply

Your email address will not be published. Required fields are marked *

Enter the text from the image below
 

This site uses Akismet to reduce spam. Learn how your comment data is processed.