Rise Against – The Sufferer & The Witness (Special Edition)




Artist: Rise Against
Year: 2006
Genre: Hardcore
Notes: Discogs
Add. Notes: Special Edition
Cover incl.: Yes
Encoder: FLAC
Bitrate: ~1000 kBit/s (44.1 kHz/16 Bit/s)
Log & Cue incl.: Yes
Size: 325,1 MB
Password: “slam” (without ” “)


All Downloads/Hosters are compatible

Download 1
KatFile.com
Turbobit.net
FileFactory.com
Rapidgator.net
Download 2
KatFile.com
Turbobit.net
FileFactory.com
Rapidgator.net

Tracklist:

1 Chamber The Cartridge 3:34
2 Injection 3:19
3 Ready To Fall 3:47
4 Bricks 1:30
5 Under The Knife 2:45
6 Prayer Of The Refugee 3:19
7 Drones 3:01
8 The Approaching Curve 3:44
9 Worth Dying For 3:20
10 Behind Closed Doors 3:15
11 Roadside 3:21
12 The Good Left Undone 4:10
13 Survive 3:41
14 Built To Last 1:51

EAC-Log, CUE-Sheed & NFO:

Click to open spoiler
Exact Audio Copy V1.0 beta 2 from 29. April 2011

EAC extraction logfile from 2. July 2011, 15:33

Rise Against / The Sufferer & The Witness

Used drive : PIONEER DVD-RW DVR-216D Adapter: 2 ID: 0

Read mode : Secure
Utilize accurate stream : Yes
Defeat audio cache : Yes
Make use of C2 pointers : No

Read offset correction : 96
Overread into Lead-In and Lead-Out : No
Fill up missing offset samples with silence : Yes
Delete leading and trailing silent blocks : No
Null samples used in CRC calculations : Yes
Used interface : Native Win32 interface for Win NT & 2000
Gap handling : Appended to previous track

Used output format : User Defined Encoder
Selected bitrate : 1024 kBit/s
Quality : High
Add ID3 tag : No
Command line compressor : C:\Program Files\Exact Audio Copy\Flac\flac.exe
Additional command line options : -8 -V -T “ARTIST=%artist%” -T “TITLE=%title%” -T “ALBUM=%albumtitle%” -T “DATE=%year%” -T “TRACKNUMBER=%tracknr%” -T “GENRE=%genre%” -T “PERFORMER=%albuminterpret%” -T “COMPOSER=%composer%” %haslyrics%–tag-from-file=LYRICS

TOC of the extracted CD

Track | Start | Length | Start sector | End sector
———————————————————
1 | 0:00.00 | 3:34.68 | 0 | 16117
2 | 3:34.68 | 3:19.16 | 16118 | 31058
3 | 6:54.09 | 3:47.53 | 31059 | 48136
4 | 10:41.62 | 1:30.64 | 48137 | 54950
5 | 12:12.51 | 2:45.13 | 54951 | 67338
6 | 14:57.64 | 3:19.29 | 67339 | 82292
7 | 18:17.18 | 3:01.45 | 82293 | 95912
8 | 21:18.63 | 3:44.56 | 95913 | 112768
9 | 25:03.44 | 3:20.00 | 112769 | 127768
10 | 28:23.44 | 3:15.09 | 127769 | 142402
11 | 31:38.53 | 3:21.02 | 142403 | 157479
12 | 34:59.55 | 4:10.72 | 157480 | 176301
13 | 39:10.52 | 3:40.59 | 176302 | 192860
14 | 42:51.36 | 1:53.35 | 192861 | 201370

Track 1

Filename C:\EAC Rips\Rise Against – The Sufferer & The Witness (2006) [FLAC] {UK Bonus Track Edition}\01 – Chamber The Cartridge.wav

Pre-gap length 0:00:02.00

Peak level 96.6 %
Extraction speed 4.2 X
Track quality 100.0 %
Test CRC 94A8CE9A
Copy CRC 94A8CE9A
Accurately ripped (confidence 16) [3A2CE412] (AR v1)
Copy OK

Track 2

Filename C:\EAC Rips\Rise Against – The Sufferer & The Witness (2006) [FLAC] {UK Bonus Track Edition}\02 – Injection.wav

Peak level 100.0 %
Extraction speed 4.0 X
Track quality 99.9 %
Test CRC EDB1F500
Copy CRC EDB1F500
Accurately ripped (confidence 16) [2F159603] (AR v1)
Copy OK

Track 3

Filename C:\EAC Rips\Rise Against – The Sufferer & The Witness (2006) [FLAC] {UK Bonus Track Edition}\03 – Ready To Fall.wav

Peak level 96.6 %
Extraction speed 4.4 X
Track quality 99.9 %
Test CRC 24C6A66F
Copy CRC 24C6A66F
Accurately ripped (confidence 16) [15E53343] (AR v1)
Copy OK

Track 4

Filename C:\EAC Rips\Rise Against – The Sufferer & The Witness (2006) [FLAC] {UK Bonus Track Edition}\04 – Bricks.wav

Peak level 98.0 %
Extraction speed 4.4 X
Track quality 100.0 %
Test CRC DC77F1E2
Copy CRC DC77F1E2
Accurately ripped (confidence 16) [76FBA876] (AR v1)
Copy OK

Track 5

Filename C:\EAC Rips\Rise Against – The Sufferer & The Witness (2006) [FLAC] {UK Bonus Track Edition}\05 – Under The Knife.wav

Peak level 96.9 %
Extraction speed 5.3 X
Track quality 100.0 %
Test CRC C6E2D984
Copy CRC C6E2D984
Accurately ripped (confidence 16) [F0CB1A07] (AR v1)
Copy OK

Track 6

Filename C:\EAC Rips\Rise Against – The Sufferer & The Witness (2006) [FLAC] {UK Bonus Track Edition}\06 – Prayer Of The Refugee.wav

Peak level 96.6 %
Extraction speed 5.7 X
Track quality 100.0 %
Test CRC 62320ADF
Copy CRC 62320ADF
Accurately ripped (confidence 16) [390E16B0] (AR v1)
Copy OK

Track 7

Filename C:\EAC Rips\Rise Against – The Sufferer & The Witness (2006) [FLAC] {UK Bonus Track Edition}\07 – Drones.wav

Peak level 97.1 %
Extraction speed 5.0 X
Track quality 99.9 %
Test CRC 0B27CBA5
Copy CRC 0B27CBA5
Accurately ripped (confidence 16) [8310BF49] (AR v1)
Copy OK

Track 8

Filename C:\EAC Rips\Rise Against – The Sufferer & The Witness (2006) [FLAC] {UK Bonus Track Edition}\08 – The Approaching Curve.wav

Peak level 96.6 %
Extraction speed 5.6 X
Track quality 99.9 %
Test CRC 39A8AE6E
Copy CRC 39A8AE6E
Accurately ripped (confidence 16) [5276CFED] (AR v1)
Copy OK

Track 9

Filename C:\EAC Rips\Rise Against – The Sufferer & The Witness (2006) [FLAC] {UK Bonus Track Edition}\09 – Worth Dying For.wav

Peak level 97.4 %
Extraction speed 6.4 X
Track quality 100.0 %
Test CRC 9E36ECC6
Copy CRC 9E36ECC6
Accurately ripped (confidence 16) [4CF05810] (AR v1)
Copy OK

Track 10

Filename C:\EAC Rips\Rise Against – The Sufferer & The Witness (2006) [FLAC] {UK Bonus Track Edition}\10 – Behind Closed Doors.wav

Peak level 96.6 %
Extraction speed 6.5 X
Track quality 100.0 %
Test CRC 6DF80BD0
Copy CRC 6DF80BD0
Accurately ripped (confidence 16) [2F2C357E] (AR v1)
Copy OK

Track 11

Filename C:\EAC Rips\Rise Against – The Sufferer & The Witness (2006) [FLAC] {UK Bonus Track Edition}\11 – Roadside.wav

Peak level 96.6 %
Extraction speed 6.8 X
Track quality 100.0 %
Test CRC 48ADEC0F
Copy CRC 48ADEC0F
Accurately ripped (confidence 16) [643FCA8F] (AR v1)
Copy OK

Track 12

Filename C:\EAC Rips\Rise Against – The Sufferer & The Witness (2006) [FLAC] {UK Bonus Track Edition}\12 – The Good Left Undone.wav

Peak level 96.6 %
Extraction speed 6.5 X
Track quality 99.9 %
Test CRC CAF51476
Copy CRC CAF51476
Accurately ripped (confidence 16) [3D01966E] (AR v1)
Copy OK

Track 13

Filename C:\EAC Rips\Rise Against – The Sufferer & The Witness (2006) [FLAC] {UK Bonus Track Edition}\13 – Survive.wav

Pre-gap length 0:01:09.50

Peak level 96.6 %
Extraction speed 6.5 X
Track quality 99.9 %
Test CRC 28745B9B
Copy CRC 28745B9B
Accurately ripped (confidence 15) [F2E55C7A] (AR v1)
Copy OK

Track 14

Filename C:\EAC Rips\Rise Against – The Sufferer & The Witness (2006) [FLAC] {UK Bonus Track Edition}\14 – Built To Last.wav

Peak level 96.6 %
Extraction speed 6.5 X
Track quality 100.0 %
Test CRC 24A829FB
Copy CRC 24A829FB
Accurately ripped (confidence 14) [F56BE494] (AR v1)
Copy OK

All tracks accurately ripped

No errors occurred

End of status report

==== Log checksum CF306C2FFE27FE23F6A69BD073C9E8386320A32434A26E1641C48148FFB15F0A ====

REM GENRE “Punk / Hardcore”
REM DATE 2006
REM DISCID AC0A7C0E
REM COMMENT “ExactAudioCopy v1.0b2”
FILE “01 – Chamber The Cartridge.wav” WAVE
TRACK 01 AUDIO
INDEX 01 00:00:00
FILE “02 – Injection.wav” WAVE
TRACK 02 AUDIO
INDEX 01 00:00:00
FILE “03 – Ready To Fall.wav” WAVE
TRACK 03 AUDIO
INDEX 01 00:00:00
FILE “04 – Bricks.wav” WAVE
TRACK 04 AUDIO
INDEX 01 00:00:00
FILE “05 – Under The Knife.wav” WAVE
TRACK 05 AUDIO
INDEX 01 00:00:00
FILE “06 – Prayer Of The Refugee.wav” WAVE
TRACK 06 AUDIO
INDEX 01 00:00:00
FILE “07 – Drones.wav” WAVE
TRACK 07 AUDIO
INDEX 01 00:00:00
FILE “08 – The Approaching Curve.wav” WAVE
TRACK 08 AUDIO
INDEX 01 00:00:00
FILE “09 – Worth Dying For.wav” WAVE
TRACK 09 AUDIO
INDEX 01 00:00:00
FILE “10 – Behind Closed Doors.wav” WAVE
TRACK 10 AUDIO
INDEX 01 00:00:00
FILE “11 – Roadside.wav” WAVE
TRACK 11 AUDIO
INDEX 01 00:00:00
FILE “12 – The Good Left Undone.wav” WAVE
TRACK 12 AUDIO
INDEX 01 00:00:00
TRACK 13 AUDIO
INDEX 00 03:01:34
FILE “13 – Survive.wav” WAVE
INDEX 01 00:00:00
FILE “14 – Built To Last.wav” WAVE
TRACK 14 AUDIO
INDEX 01 00:00:00


Leave a Reply

Your email address will not be published. Required fields are marked *

This site uses Akismet to reduce spam. Learn how your comment data is processed.