Rise Against – The Ghost Note Symphonies, Vol. 1




Artist: Rise Against
Year: 2018
Genre: Rock
Notes: Discogs
Add. Notes:
Cover incl.: Yes
Encoder: FLAC
Bitrate: ~900 kBit/s (44.1 kHz/16 Bit/s)
Log & Cue incl.: Yes
Size: 238,81 MB
Password: “slam” (without ” “)


All Downloads/Hosters are compatible

Download 1
Turbobit.net
Rapidgator.net
UploadEver.com
JustUpload.io
UsersDrive.com
Download 2
Turbobit.net
Rapidgator.net
UploadEver.com
JustUpload.io
UsersDrive.com
Download 3
Turbobit.net
Rapidgator.net
UploadEver.com
JustUpload.io
UsersDrive.com

Tracklist:

1 - The Violence - 4:21
2 - Audience Of One - 4:09
3 - Faint Resemblance - 2:23
4 - House On Fire - 3:24
5 - Like The Angel - 3:16
6 - Miracle - 4:03
7 - Savior - 4:55
8 - Wait For Me - 3:52
9 - Far From Perfect - 3:54
10 - Voices Off Camera - 3:02

EAC-Log, CUE-Sheed & NFO:

Click to open spoiler
Exact Audio Copy V1.3 from 2. September 2016

EAC extraction logfile from 31. August 2018, 16:31

Rise Against / The Ghost Note Symphonies, Vol. 1

Used drive : HL-DT-STDVDRAM GP50NB40 Adapter: 1 ID: 0

Read mode : Secure
Utilize accurate stream : Yes
Defeat audio cache : Yes
Make use of C2 pointers : No

Read offset correction : 6
Overread into Lead-In and Lead-Out : No
Fill up missing offset samples with silence : Yes
Delete leading and trailing silent blocks : No
Null samples used in CRC calculations : Yes
Used interface : Native Win32 interface for Win NT & 2000
Gap handling : Appended to previous track

Used output format : User Defined Encoder
Selected bitrate : 896 kBit/s
Quality : High
Add ID3 tag : No
Command line compressor : C:\Program Files (x86)\Exact Audio Copy\Flac\flac.exe
Additional command line options : -8 -e -p -V -T “ARTIST=%artist%” -T “TITLE=%title%” -T “ALBUM=%albumtitle%” -T “DATE=%year%” -T “TRACKNUMBER=%tracknr%” -T “GENRE=%genre%” -T “PERFORMER=%albuminterpret%” -T “COMPOSER=%composer%” %haslyrics%–tag-from-file=LYRICS=”%lyricsfile%”%haslyrics% -T “ALBUMARTIST=%albumartist%” -T “DISCNUMBER=%cdnumber%” -T “TOTALDISCS=%totalcds%” -T “TOTALTRACKS=%numtracks%” -T “COMMENT=%comment%” %source% -o %dest%

TOC of the extracted CD

Track | Start | Length | Start sector | End sector
———————————————————
1 | 0:00.00 | 4:21.04 | 0 | 19578
2 | 4:21.04 | 4:09.02 | 19579 | 38255
3 | 8:30.06 | 2:22.42 | 38256 | 48947
4 | 10:52.48 | 3:24.28 | 48948 | 64275
5 | 14:17.01 | 3:16.00 | 64276 | 78975
6 | 17:33.01 | 4:02.40 | 78976 | 97165
7 | 21:35.41 | 4:54.38 | 97166 | 119253
8 | 26:30.04 | 3:51.40 | 119254 | 136618
9 | 30:21.44 | 3:53.41 | 136619 | 154134
10 | 34:15.10 | 3:01.50 | 154135 | 167759

Track 1

Filename E:\holding\Rise Against\[2018] The Ghist Note Symphonies, Vol. 1\01. The Violence.wav

Pre-gap length 0:00:02.00

Peak level 97.6 %
Extraction speed 1.1 X
Track quality 100.0 %
Test CRC A37D5DDB
Copy CRC A37D5DDB
Track not present in AccurateRip database
Copy OK

Track 2

Filename E:\holding\Rise Against\[2018] The Ghist Note Symphonies, Vol. 1\02. Audience Of One.wav

Peak level 97.4 %
Extraction speed 1.2 X
Track quality 100.0 %
Test CRC E7F762F9
Copy CRC E7F762F9
Track not present in AccurateRip database
Copy OK

Track 3

Filename E:\holding\Rise Against\[2018] The Ghist Note Symphonies, Vol. 1\03. Faint Resemblance.wav

Peak level 97.1 %
Extraction speed 1.2 X
Track quality 100.0 %
Test CRC DC5B7A6C
Copy CRC DC5B7A6C
Track not present in AccurateRip database
Copy OK

Track 4

Filename E:\holding\Rise Against\[2018] The Ghist Note Symphonies, Vol. 1\04. House On Fire.wav

Peak level 97.7 %
Extraction speed 1.4 X
Track quality 100.0 %
Test CRC 3CB0D955
Copy CRC 3CB0D955
Track not present in AccurateRip database
Copy OK

Track 5

Filename E:\holding\Rise Against\[2018] The Ghist Note Symphonies, Vol. 1\05. Like The Angel.wav

Peak level 98.2 %
Extraction speed 1.5 X
Track quality 100.0 %
Test CRC 85640C60
Copy CRC 85640C60
Track not present in AccurateRip database
Copy OK

Track 6

Filename E:\holding\Rise Against\[2018] The Ghist Note Symphonies, Vol. 1\06. Miracle.wav

Peak level 97.8 %
Extraction speed 1.6 X
Track quality 100.0 %
Test CRC 513F8B6D
Copy CRC 513F8B6D
Track not present in AccurateRip database
Copy OK

Track 7

Filename E:\holding\Rise Against\[2018] The Ghist Note Symphonies, Vol. 1\07. Savior.wav

Peak level 97.4 %
Extraction speed 1.7 X
Track quality 100.0 %
Test CRC 16A1A724
Copy CRC 16A1A724
Track not present in AccurateRip database
Copy OK

Track 8

Filename E:\holding\Rise Against\[2018] The Ghist Note Symphonies, Vol. 1\08. Wait For Me.wav

Peak level 98.0 %
Extraction speed 1.8 X
Track quality 100.0 %
Test CRC DDD89426
Copy CRC DDD89426
Track not present in AccurateRip database
Copy OK

Track 9

Filename E:\holding\Rise Against\[2018] The Ghist Note Symphonies, Vol. 1\09. Far From Perfect.wav

Peak level 98.2 %
Extraction speed 1.9 X
Track quality 100.0 %
Test CRC 540E0F28
Copy CRC 540E0F28
Track not present in AccurateRip database
Copy OK

Track 10

Filename E:\holding\Rise Against\[2018] The Ghist Note Symphonies, Vol. 1\10. Voices Off Camera.wav

Peak level 97.1 %
Extraction speed 1.9 X
Track quality 100.0 %
Test CRC 681F96E3
Copy CRC 681F96E3
Track not present in AccurateRip database
Copy OK

None of the tracks are present in the AccurateRip database

No errors occurred

End of status report

—- CUETools DB Plugin V2.1.6

[CTDB TOCID: CKmpSmcWNWXYWmwwGZmzgwHHBpg-] found
Submit result: CKmpSmcWNWXYWmwwGZmzgwHHBpg- has been confirmed
Track | CTDB Status
1 | (36/36) Accurately ripped
2 | (36/36) Accurately ripped
3 | (36/36) Accurately ripped
4 | (36/36) Accurately ripped
5 | (36/36) Accurately ripped
6 | (36/36) Accurately ripped
7 | (36/36) Accurately ripped
8 | (35/36) Accurately ripped
9 | (35/36) Accurately ripped
10 | (35/36) Accurately ripped

==== Log checksum 9C35A35F82931D4A24A502EA850F845EC11815309EA3EB86D18DC4AD4B096777 ====

REM DATE 2018
REM DISCID 8508BC0A
REM COMMENT “ExactAudioCopy v1.3”
CATALOG 0602567558040
PERFORMER “Rise Against”
TITLE “The Ghost Note Symphonies, Vol. 1”
REM COMPOSER “”
FILE “01. The Violence.wav” WAVE
TRACK 01 AUDIO
TITLE “The Violence”
PERFORMER “Rise Against”
REM COMPOSER “”
ISRC USUM71806092
INDEX 01 00:00:00
FILE “02. Audience Of One.wav” WAVE
TRACK 02 AUDIO
TITLE “Audience Of One”
PERFORMER “Rise Against”
REM COMPOSER “”
ISRC USUM71806085
INDEX 01 00:00:00
FILE “03. Faint Resemblance.wav” WAVE
TRACK 03 AUDIO
TITLE “Faint Resemblance”
PERFORMER “Rise Against”
REM COMPOSER “”
ISRC USUM71806086
INDEX 01 00:00:00
FILE “04. House On Fire.wav” WAVE
TRACK 04 AUDIO
TITLE “House On Fire”
PERFORMER “Rise Against”
REM COMPOSER “”
ISRC USUM71806088
INDEX 01 00:00:00
FILE “05. Like The Angel.wav” WAVE
TRACK 05 AUDIO
TITLE “Like The Angel”
PERFORMER “Rise Against”
REM COMPOSER “”
ISRC USUM71806089
INDEX 01 00:00:00
FILE “06. Miracle.wav” WAVE
TRACK 06 AUDIO
TITLE “Miracle”
PERFORMER “Rise Against”
REM COMPOSER “”
ISRC USUM71806090
INDEX 01 00:00:00
FILE “07. Savior.wav” WAVE
TRACK 07 AUDIO
TITLE “Savior”
PERFORMER “Rise Against”
REM COMPOSER “”
ISRC USUM71806091
INDEX 01 00:00:00
FILE “08. Wait For Me.wav” WAVE
TRACK 08 AUDIO
TITLE “Wait For Me”
PERFORMER “Rise Against”
REM COMPOSER “”
ISRC USUM71806091
INDEX 01 00:00:00
FILE “09. Far From Perfect.wav” WAVE
TRACK 09 AUDIO
TITLE “Far From Perfect”
PERFORMER “Rise Against”
REM COMPOSER “”
ISRC USUM71806087
INDEX 01 00:00:00
FILE “10. Voices Off Camera.wav” WAVE
TRACK 10 AUDIO
TITLE “Voices Off Camera”
PERFORMER “Rise Against”
REM COMPOSER “”
ISRC USUM71806087
INDEX 01 00:00:00

Leave a Reply

Your email address will not be published. Required fields are marked *

Enter the text from the image below
 

This site uses Akismet to reduce spam. Learn how your comment data is processed.