Rise Against – The Black Market (Japanese Edition)




[Total: 0    Average: 0/5]

Artist: Rise Against
Year: 2014
Genre: Rock
Notes: Discogs
Add. Notes: Japanese Edition
Cover incl.: Yes
Encoder: FLAC
Bitrate: ~1000 kBit/s (44.1 kHz/16 Bit/s)
Log & Cue incl.: Yes
Size: 365 MB
Password: “slam” (without ” “)


All Downloads/Hosters are compatible

Download 1
Share-online.biz
KatFile.com
Rapidgator.net
Mexa.sh
Download 2
Share-online.biz
KatFile.com
Rapidgator.net
Mexa.sh

Tracklist:

1 - The Great Die-Off - 3:40
2 - I Don't Want To Be Here 
Anymore - 4:00
3 - Tragedy + Time - 4:17
4 - The Black Market - 4:16
5 - The Eco-Terrorist In Me - 2:45
6 - Sudden Life - 4:08
7 - A Beautiful Indifference - 3:25
8 - Methadone - 3:49
9 - Zero Visibility - 4:38
10 - Awake Too Long - 3:12
11 - People Live Here - 4:09
12 - Bridges - 4:07
Bonus Track
13 - Escape Artists - 4:01

EAC-Log, CUE-Sheed & NFO:

Click to open spoiler
Exact Audio Copy V1.3 from 2. September 2016

EAC extraction logfile from 21. November 2018, 17:56

Rise Against / The Black Market

Used drive : MATSHITADVD-RAM UJ8E2Q Adapter: 1 ID: 0

Read mode : Secure
Utilize accurate stream : Yes
Defeat audio cache : Yes
Make use of C2 pointers : No

Read offset correction : 103
Overread into Lead-In and Lead-Out : No
Fill up missing offset samples with silence : Yes
Delete leading and trailing silent blocks : No
Null samples used in CRC calculations : Yes
Used interface : Native Win32 interface for Win NT & 2000

Used output format : User Defined Encoder
Selected bitrate : 1024 kBit/s
Quality : High
Add ID3 tag : No
Command line compressor : C:\Users\User\flac-1.3.2-win\flac-1.3.2-win\win64\flac.exe
Additional command line options : -8 -V -T “TITLE=%title%” -T “ARTIST=%artist%” -T “ALBUMARTIST=%albumartist%” -T “ALBUM=%albumtitle%” -T “DATE=%year%” -T “TRACKNUMBER=%tracknr%” -T “TRACKTOTAL=%numtracks%” -T “GENRE=%genre%” -T “COMMENT=%comment%” -T “PERFORMER=%albuminterpret%” -T “COMPOSER=%composer%” %source% -o %dest%

TOC of the extracted CD

Track | Start | Length | Start sector | End sector
———————————————————
1 | 0:00.00 | 3:39.45 | 0 | 16469
2 | 3:39.45 | 3:59.72 | 16470 | 34466
3 | 7:39.42 | 4:16.74 | 34467 | 53740
4 | 11:56.41 | 4:15.73 | 53741 | 72938
5 | 16:12.39 | 2:45.18 | 72939 | 85331
6 | 18:57.57 | 4:08.34 | 85332 | 103965
7 | 23:06.16 | 3:24.64 | 103966 | 119329
8 | 26:31.05 | 3:48.53 | 119330 | 136482
9 | 30:19.58 | 4:38.28 | 136483 | 157360
10 | 34:58.11 | 3:11.72 | 157361 | 171757
11 | 38:10.08 | 4:08.74 | 171758 | 190431
12 | 42:19.07 | 4:05.44 | 190432 | 208850
13 | 46:24.51 | 4:01.54 | 208851 | 226979

Range status and errors

Selected range

Filename C:\Users\User\Desktop\2014 – The Black Market\Rise Against – The Black Market.wav

Peak level 100.0 %
Extraction speed 4.0 X
Range quality 100.0 %
Test CRC F9EACC88
Copy CRC F9EACC88
Copy OK

No errors occurred

AccurateRip summary

Track 1 accurately ripped (confidence 2) [8A901783] (AR v2)
Track 2 accurately ripped (confidence 2) [454CC543] (AR v2)
Track 3 accurately ripped (confidence 2) [0019E94C] (AR v2)
Track 4 accurately ripped (confidence 2) [2D7ED6CA] (AR v2)
Track 5 accurately ripped (confidence 2) [BEECEB03] (AR v2)
Track 6 accurately ripped (confidence 2) [F95AEF5C] (AR v2)
Track 7 accurately ripped (confidence 2) [9F69FDF6] (AR v2)
Track 8 accurately ripped (confidence 2) [E0D6A803] (AR v2)
Track 9 accurately ripped (confidence 2) [420CDDF4] (AR v2)
Track 10 accurately ripped (confidence 2) [93D57960] (AR v2)
Track 11 accurately ripped (confidence 2) [64E5A2FB] (AR v2)
Track 12 accurately ripped (confidence 2) [58C38D66] (AR v2)
Track 13 accurately ripped (confidence 2) [5378F229] (AR v2)

All tracks accurately ripped

End of status report

—- CUETools DB Plugin V2.1.6

[CTDB TOCID: c087JFC17MZ5b2SvO0fyeEFJu7I-] found
Submit result: c087JFC17MZ5b2SvO0fyeEFJu7I- has been confirmed
Track | CTDB Status
1 | (16/16) Accurately ripped
2 | (16/16) Accurately ripped
3 | (16/16) Accurately ripped
4 | (16/16) Accurately ripped
5 | (16/16) Accurately ripped
6 | (16/16) Accurately ripped
7 | (16/16) Accurately ripped
8 | (16/16) Accurately ripped
9 | (16/16) Accurately ripped
10 | (16/16) Accurately ripped
11 | (16/16) Accurately ripped
12 | (16/16) Accurately ripped
13 | (16/16) Accurately ripped

==== Log checksum B911687922EA16A46F3AB778033B52991421DC4F668A0747FBFF20DF536835BF ====

REM DATE 2014
REM DISCID AB0BD20D
REM COMMENT “ExactAudioCopy v1.3”
PERFORMER “Rise Against”
TITLE “The Black Market”
REM COMPOSER “”
FILE “Rise Against – The Black Market.flac” WAVE
TRACK 01 AUDIO
TITLE “The Great Die-Off”
PERFORMER “Rise Against”
REM COMPOSER “”
INDEX 01 00:00:00
TRACK 02 AUDIO
TITLE “I Don’t Want to Be Here Anymore”
PERFORMER “Rise Against”
REM COMPOSER “”
INDEX 01 03:39:45
TRACK 03 AUDIO
TITLE “Tragedy + Time”
PERFORMER “Rise Against”
REM COMPOSER “”
INDEX 01 07:39:42
TRACK 04 AUDIO
TITLE “The Black Market”
PERFORMER “Rise Against”
REM COMPOSER “”
INDEX 01 11:56:41
TRACK 05 AUDIO
TITLE “The Eco-Terrorist in Me”
PERFORMER “Rise Against”
REM COMPOSER “”
INDEX 01 16:12:39
TRACK 06 AUDIO
TITLE “Sudden Life”
PERFORMER “Rise Against”
REM COMPOSER “”
INDEX 01 18:57:57
TRACK 07 AUDIO
TITLE “A Beautiful Indifference”
PERFORMER “Rise Against”
REM COMPOSER “”
INDEX 01 23:06:16
TRACK 08 AUDIO
TITLE “Methadone”
PERFORMER “Rise Against”
REM COMPOSER “”
INDEX 01 26:31:05
TRACK 09 AUDIO
TITLE “Zero Visibility”
PERFORMER “Rise Against”
REM COMPOSER “”
INDEX 01 30:19:58
TRACK 10 AUDIO
TITLE “Awake Too Long”
PERFORMER “Rise Against”
REM COMPOSER “”
INDEX 01 34:58:11
TRACK 11 AUDIO
TITLE “People Live Here”
PERFORMER “Rise Against”
REM COMPOSER “”
INDEX 01 38:10:08
TRACK 12 AUDIO
TITLE “Bridges”
PERFORMER “Rise Against”
REM COMPOSER “”
INDEX 01 42:19:07
TRACK 13 AUDIO
TITLE “Escape Artists”
PERFORMER “Rise Against”
REM COMPOSER “”
INDEX 01 46:24:51


Spread the Download

Leave a Reply

Your email address will not be published. Required fields are marked *

Enter the text from the image below
 

This site uses Akismet to reduce spam. Learn how your comment data is processed.