Rise Against – Siren Song of the Counter Culture




Artist: Rise Against
Year: 2004
Genre: Hardcore
Notes: Discogs
Add. Notes:
Cover incl.: Yes
Encoder: ALAC
Bitrate: ~1000 kBit/s (44.1 kHz/16 Bit/s)
Log & Cue incl.: Yes
Size: 310,2 MB
Password: “slam” (without ” “)


All Downloads/Hosters are compatible

Download 1
KatFile.com
Turbobit.net
Rapidgator.net
Download 2
KatFile.com
Turbobit.net
Rapidgator.net

Tracklist:

1 - State Of The Union - 2:19
2 - The First Drop - 2:39
3 - Life Less Frightening - 3:44
4 - Paper Wings - 3:44
5 - Blood To Bleed - 3:48
6 - To Them These Streets Belong - 2:49
7 - Tip The Scales - 3:49
8 - Anywhere But Here - 3:38
9 - Give It All - 2:51
10 - Dancing For Rain - 4:01
11 - Swing Life Away - 3:20
12 - Rumors Of My Demise Have ... - 4:15
13 - Fix Me - 0:54

EAC-Log, CUE-Sheed & NFO:

Click to open spoiler
X Lossless Decoder version 20100918 (122.1)

XLD extraction logfile from 2010-10-14 15:35:51 +0200

Rise Against / Siren Song of the Counter Culture

Used drive : MATSHITA DVD-R UJ-898 (revision HA07)

Use cdparanoia mode : YES (CDParanoia III 10.2 engine)
Disable audio cache : OK for the drive with cache less than 2750KB
Make use of C2 pointers : NO
Read offset correction : 102
Max retry count : 100
Gap status : Analyzed, Appended

TOC of the extracted CD
Track | Start | Length | Start sector | End sector
———————————————————
1 | 00:00:00 | 02:19:10 | 0 | 10434
2 | 02:19:10 | 02:39:00 | 10435 | 22359
3 | 04:58:10 | 03:44:01 | 22360 | 39160
4 | 08:42:11 | 03:43:46 | 39161 | 55931
5 | 12:25:57 | 03:48:36 | 55932 | 73067
6 | 16:14:18 | 02:49:32 | 73068 | 85774
7 | 19:03:50 | 03:49:01 | 85775 | 102950
8 | 22:52:51 | 03:38:09 | 102951 | 119309
9 | 26:30:60 | 02:50:67 | 119310 | 132126
10 | 29:21:52 | 04:01:33 | 132127 | 150234
11 | 33:23:10 | 03:20:05 | 150235 | 165239
12 | 36:43:15 | 04:15:27 | 165240 | 184391
13 | 40:58:42 | 00:54:74 | 184392 | 188515

All Tracks
Album gain : -9.84 dB
Peak : 1.000000

Track 01
Filename : /Volumes/MYSTICK/newrips/Rise Against – Siren Song of the Counter Culture (2004) [FLAC]/01. State of the Union.flac
Pre-gap length : 00:02:00

Track gain : -9.73 dB
Peak : 0.999390
CRC32 hash (test run) : 7E08E1EC
CRC32 hash : 7E08E1EC
CRC32 hash (skip zero) : F7147657
AccurateRip signature : 5EFC8950
->Accurately ripped! (confidence 30)
Statistics
Read error : 0
Skipped (treated as error) : 0
Edge jitter error (maybe fixed) : 0
Atom jitter error (maybe fixed) : 0
Drift error (maybe fixed) : 0
Dropped bytes error (maybe fixed) : 0
Duplicated bytes error (maybe fixed) : 0
Inconsistency in error sectors : 0

Track 02
Filename : /Volumes/MYSTICK/newrips/Rise Against – Siren Song of the Counter Culture (2004) [FLAC]/02. The First Drop.flac

Track gain : -9.67 dB
Peak : 1.000000
CRC32 hash (test run) : 7B2C1248
CRC32 hash : 7B2C1248
CRC32 hash (skip zero) : 12EA1FEC
AccurateRip signature : EAB5C3A5
->Accurately ripped! (confidence 31)
Statistics
Read error : 0
Skipped (treated as error) : 0
Edge jitter error (maybe fixed) : 0
Atom jitter error (maybe fixed) : 0
Drift error (maybe fixed) : 0
Dropped bytes error (maybe fixed) : 0
Duplicated bytes error (maybe fixed) : 0
Inconsistency in error sectors : 0

Track 03
Filename : /Volumes/MYSTICK/newrips/Rise Against – Siren Song of the Counter Culture (2004) [FLAC]/03. Life Less Frightening.flac

Track gain : -10.48 dB
Peak : 1.000000
CRC32 hash (test run) : 2114C3F0
CRC32 hash : 2114C3F0
CRC32 hash (skip zero) : 685BFF0E
AccurateRip signature : A5CA7809
->Accurately ripped! (confidence 31)
Statistics
Read error : 0
Skipped (treated as error) : 0
Edge jitter error (maybe fixed) : 0
Atom jitter error (maybe fixed) : 0
Drift error (maybe fixed) : 0
Dropped bytes error (maybe fixed) : 0
Duplicated bytes error (maybe fixed) : 0
Inconsistency in error sectors : 0

Track 04
Filename : /Volumes/MYSTICK/newrips/Rise Against – Siren Song of the Counter Culture (2004) [FLAC]/04. Paper Wings.flac

Track gain : -9.65 dB
Peak : 0.999023
CRC32 hash (test run) : FE155A4A
CRC32 hash : FE155A4A
CRC32 hash (skip zero) : 821BC782
AccurateRip signature : B85602E3
->Accurately ripped! (confidence 31)
Statistics
Read error : 0
Skipped (treated as error) : 0
Edge jitter error (maybe fixed) : 0
Atom jitter error (maybe fixed) : 0
Drift error (maybe fixed) : 0
Dropped bytes error (maybe fixed) : 0
Duplicated bytes error (maybe fixed) : 0
Inconsistency in error sectors : 0

Track 05
Filename : /Volumes/MYSTICK/newrips/Rise Against – Siren Song of the Counter Culture (2004) [FLAC]/05. Blood to Bleed.flac

Track gain : -9.12 dB
Peak : 0.999023
CRC32 hash (test run) : FB7ABA17
CRC32 hash : FB7ABA17
CRC32 hash (skip zero) : 0394E992
AccurateRip signature : 68CE641A
->Accurately ripped! (confidence 31)
Statistics
Read error : 0
Skipped (treated as error) : 0
Edge jitter error (maybe fixed) : 0
Atom jitter error (maybe fixed) : 0
Drift error (maybe fixed) : 0
Dropped bytes error (maybe fixed) : 0
Duplicated bytes error (maybe fixed) : 0
Inconsistency in error sectors : 0

Track 06
Filename : /Volumes/MYSTICK/newrips/Rise Against – Siren Song of the Counter Culture (2004) [FLAC]/06. To Them These Streets Belong.flac

Track gain : -10.62 dB
Peak : 1.000000
CRC32 hash (test run) : 2BD49229
CRC32 hash : 2BD49229
CRC32 hash (skip zero) : 60318D94
AccurateRip signature : 3A56E196
->Accurately ripped! (confidence 30)
Statistics
Read error : 0
Skipped (treated as error) : 0
Edge jitter error (maybe fixed) : 0
Atom jitter error (maybe fixed) : 0
Drift error (maybe fixed) : 0
Dropped bytes error (maybe fixed) : 0
Duplicated bytes error (maybe fixed) : 0
Inconsistency in error sectors : 0

Track 07
Filename : /Volumes/MYSTICK/newrips/Rise Against – Siren Song of the Counter Culture (2004) [FLAC]/07. Tip the Scales.flac

Track gain : -9.62 dB
Peak : 0.999023
CRC32 hash (test run) : 0534055A
CRC32 hash : 0534055A
CRC32 hash (skip zero) : EDEDC814
AccurateRip signature : 7A0BEA06
->Accurately ripped! (confidence 31)
Statistics
Read error : 0
Skipped (treated as error) : 0
Edge jitter error (maybe fixed) : 0
Atom jitter error (maybe fixed) : 0
Drift error (maybe fixed) : 0
Dropped bytes error (maybe fixed) : 0
Duplicated bytes error (maybe fixed) : 0
Inconsistency in error sectors : 0

Track 08
Filename : /Volumes/MYSTICK/newrips/Rise Against – Siren Song of the Counter Culture (2004) [FLAC]/08. Anywhere But Here.flac

Track gain : -9.32 dB
Peak : 0.999023
CRC32 hash (test run) : 8BB2ED09
CRC32 hash : 8BB2ED09
CRC32 hash (skip zero) : 95A55377
AccurateRip signature : 9A1297C8
->Accurately ripped! (confidence 31)
Statistics
Read error : 0
Skipped (treated as error) : 0
Edge jitter error (maybe fixed) : 0
Atom jitter error (maybe fixed) : 0
Drift error (maybe fixed) : 0
Dropped bytes error (maybe fixed) : 0
Duplicated bytes error (maybe fixed) : 0
Inconsistency in error sectors : 0

Track 09
Filename : /Volumes/MYSTICK/newrips/Rise Against – Siren Song of the Counter Culture (2004) [FLAC]/09. Give It All.flac

Track gain : -9.75 dB
Peak : 0.999603
CRC32 hash (test run) : 6A868FFC
CRC32 hash : 6A868FFC
CRC32 hash (skip zero) : B8029E93
AccurateRip signature : AF438B08
->Accurately ripped! (confidence 31)
Statistics
Read error : 0
Skipped (treated as error) : 0
Edge jitter error (maybe fixed) : 0
Atom jitter error (maybe fixed) : 0
Drift error (maybe fixed) : 0
Dropped bytes error (maybe fixed) : 0
Duplicated bytes error (maybe fixed) : 0
Inconsistency in error sectors : 0

Track 10
Filename : /Volumes/MYSTICK/newrips/Rise Against – Siren Song of the Counter Culture (2004) [FLAC]/10. Dancing for Rain.flac

Track gain : -9.49 dB
Peak : 0.999023
CRC32 hash (test run) : 38BDFFB8
CRC32 hash : 38BDFFB8
CRC32 hash (skip zero) : 371862A7
AccurateRip signature : 4DABEC1B
->Accurately ripped! (confidence 31)
Statistics
Read error : 0
Skipped (treated as error) : 0
Edge jitter error (maybe fixed) : 0
Atom jitter error (maybe fixed) : 0
Drift error (maybe fixed) : 0
Dropped bytes error (maybe fixed) : 0
Duplicated bytes error (maybe fixed) : 0
Inconsistency in error sectors : 0

Track 11
Filename : /Volumes/MYSTICK/newrips/Rise Against – Siren Song of the Counter Culture (2004) [FLAC]/11. Swing Life Away.flac

Track gain : -7.22 dB
Peak : 0.999023
CRC32 hash (test run) : C9CF509D
CRC32 hash : C9CF509D
CRC32 hash (skip zero) : 75D3A4F9
AccurateRip signature : 770DC57B
->Accurately ripped! (confidence 30)
Statistics
Read error : 0
Skipped (treated as error) : 0
Edge jitter error (maybe fixed) : 0
Atom jitter error (maybe fixed) : 0
Drift error (maybe fixed) : 0
Dropped bytes error (maybe fixed) : 0
Duplicated bytes error (maybe fixed) : 0
Inconsistency in error sectors : 0

Track 12
Filename : /Volumes/MYSTICK/newrips/Rise Against – Siren Song of the Counter Culture (2004) [FLAC]/12. Rumors of My Demise Have Been Greatly Exaggerated.flac

Track gain : -9.84 dB
Peak : 0.999023
CRC32 hash (test run) : 581515CA
CRC32 hash : 581515CA
CRC32 hash (skip zero) : E7F7762D
AccurateRip signature : 99697506
->Accurately ripped! (confidence 32)
Statistics
Read error : 0
Skipped (treated as error) : 0
Edge jitter error (maybe fixed) : 0
Atom jitter error (maybe fixed) : 0
Drift error (maybe fixed) : 0
Dropped bytes error (maybe fixed) : 0
Duplicated bytes error (maybe fixed) : 0
Inconsistency in error sectors : 0

Track 13
Filename : /Volumes/MYSTICK/newrips/Rise Against – Siren Song of the Counter Culture (2004) [FLAC]/13. Fix Me.flac
Pre-gap length : 00:01:06

Track gain : -10.12 dB
Peak : 0.998993
CRC32 hash (test run) : B8C66ADE
CRC32 hash : B8C66ADE
CRC32 hash (skip zero) : 25CD184A
AccurateRip signature : 7CA33B97
->Accurately ripped! (confidence 31)
Statistics
Read error : 0
Skipped (treated as error) : 0
Edge jitter error (maybe fixed) : 0
Atom jitter error (maybe fixed) : 0
Drift error (maybe fixed) : 0
Dropped bytes error (maybe fixed) : 0
Duplicated bytes error (maybe fixed) : 0
Inconsistency in error sectors : 0

No errors occurred

End of status report

TITLE “Siren Song of the Counter Culture”
PERFORMER “Rise Against”
REM DATE 2004
REM DISCID 9609D10D
REM DISCNUMBER 1
REM TOTALDISCS 1
FILE “01 State of the Union.m4a” WAVE
TRACK 01 AUDIO
TITLE “State of the Union”
PERFORMER “Rise Against”
INDEX 01 00:00:00
FILE “02 The First Drop.m4a” WAVE
TRACK 02 AUDIO
TITLE “The First Drop”
PERFORMER “Rise Against”
INDEX 01 00:00:00
FILE “03 Life Less Frightening.m4a” WAVE
TRACK 03 AUDIO
TITLE “Life Less Frightening”
PERFORMER “Rise Against”
INDEX 01 00:00:00
FILE “04 Paper Wings.m4a” WAVE
TRACK 04 AUDIO
TITLE “Paper Wings”
PERFORMER “Rise Against”
INDEX 01 00:00:00
FILE “05 Blood to Bleed.m4a” WAVE
TRACK 05 AUDIO
TITLE “Blood to Bleed”
PERFORMER “Rise Against”
INDEX 01 00:00:00
FILE “06 To Them These Streets Belong.m4a” WAVE
TRACK 06 AUDIO
TITLE “To Them These Streets Belong”
PERFORMER “Rise Against”
INDEX 01 00:00:00
FILE “07 Tip the Scales.m4a” WAVE
TRACK 07 AUDIO
TITLE “Tip the Scales”
PERFORMER “Rise Against”
INDEX 01 00:00:00
FILE “08 Anywhere but Here.m4a” WAVE
TRACK 08 AUDIO
TITLE “Anywhere but Here”
PERFORMER “Rise Against”
INDEX 01 00:00:00
FILE “09 Give It All.m4a” WAVE
TRACK 09 AUDIO
TITLE “Give It All”
PERFORMER “Rise Against”
INDEX 01 00:00:00
FILE “10 Dancing for Rain.m4a” WAVE
TRACK 10 AUDIO
TITLE “Dancing for Rain”
PERFORMER “Rise Against”
INDEX 01 00:00:00
FILE “11 Swing Life Away.m4a” WAVE
TRACK 11 AUDIO
TITLE “Swing Life Away”
PERFORMER “Rise Against”
INDEX 01 00:00:00
FILE “12 Rumors of My Demise Have Been Greatly Exaggerated.m4a” WAVE
TRACK 12 AUDIO
TITLE “Rumors of My Demise Have Been Greatly Exaggerated”
PERFORMER “Rise Against”
INDEX 01 00:00:00
TRACK 13 AUDIO
TITLE “Fix Me”
PERFORMER “Rise Against”
INDEX 00 04:14:21
FILE “13 Fix Me.m4a” WAVE
INDEX 01 00:00:00


Leave a Reply

Your email address will not be published. Required fields are marked *

This site uses Akismet to reduce spam. Learn how your comment data is processed.