Rise Against – RPM10 (Revolutions Per Minute)




Artist: Rise Against
Year: 2003
Genre: Rock
Notes: Discogs
Add. Notes:
Cover incl.: Yes
Encoder: ALAC
Bitrate: ~1000 kBit/s (44.1 kHz/16 Bit/s)
Log & Cue incl.: Yes
Size: 508 MB
Password: “slam” (without ” “)


All Downloads/Hosters are compatible

Download 1
KatFile.com
Turbobit.net
Rapidgator.net
FileFactory.com
Download 2
KatFile.com
Turbobit.net
Rapidgator.net
FileFactory.com

Tracklist:

1. Black Masks & Gasoline 
2. Heaven Knows 
3. Dead Ringer 
4. Halfway There 
5. Like The Angel 
6. Voices Off Camera: 
7. Blood-Red, White & Blue 
8. Broken English 
9. Last Chance Blueprint 
10. To The Core 
11. Torches  
12. Amber Changing  
Bonus Demo Tracks
13. Black Masks & Gasoline 
14. Heaven Knows 
15. Halfway There  
16. Like The Angel  
17. Voices Off Camera:  
18. Blood-Red, White & Blue 
19. Broken English 
20. Last Chance Blueprint 
21. Torches 
22. Amber Changing

EAC-Log, CUE-Sheed & NFO:

Click to open spoiler
Exact Audio Copy V1.0 beta 3 from 29. August 2011

EAC extraction logfile from 8. October 2017, 1:11

Rise Against / RPM10 (Revolutions Per Minute)

Used drive : PIONEER BD-RW BDR-209D Adapter: 2 ID: 0

Read mode : Secure
Utilize accurate stream : Yes
Defeat audio cache : Yes
Make use of C2 pointers : No

Read offset correction : 667
Overread into Lead-In and Lead-Out : No
Fill up missing offset samples with silence : Yes
Delete leading and trailing silent blocks : No
Null samples used in CRC calculations : Yes
Used interface : Native Win32 interface for Win NT & 2000
Gap handling : Appended to previous track

Used output format : User Defined Encoder
Selected bitrate : 1024 kBit/s
Quality : High
Add ID3 tag : No
Command line compressor : C:\Program Files (x86)\Exact Audio Copy\Flac\flac.exe
Additional command line options : -8 -e -p -V -T “ARTIST=%artist%” -T “TITLE=%title%” -T “ALBUM=%albumtitle%” -T “DATE=%year%” -T “TRACKNUMBER=%tracknr%” -T “GENRE=%genre%” -T “PERFORMER=%albuminterpret%” -T “COMPOSER=%composer%” %haslyrics%–tag-from-file=LYRICS=”%lyricsfile%”%haslyrics% -T “ALBUMARTIST=%albumartist%” -T “DISCNUMBER=%cdnumber%” -T “TOTALDISCS=%totalcds%” -T “TOTALTRACKS=%numtracks%” -T “COMMENT=%comment%” %source% -o %dest%

TOC of the extracted CD

Track | Start | Length | Start sector | End sector
———————————————————
1 | 0:00.00 | 2:59.44 | 0 | 13468
2 | 2:59.44 | 3:23.07 | 13469 | 28700
3 | 6:22.51 | 1:31.53 | 28701 | 35578
4 | 7:54.29 | 3:41.17 | 35579 | 52170
5 | 11:35.46 | 2:46.66 | 52171 | 64686
6 | 14:22.37 | 2:16.72 | 64687 | 74958
7 | 16:39.34 | 3:39.08 | 74959 | 91391
8 | 20:18.42 | 3:24.69 | 91392 | 106760
9 | 23:43.36 | 2:14.28 | 106761 | 116838
10 | 25:57.64 | 1:33.24 | 116839 | 123837
11 | 27:31.13 | 3:41.15 | 123838 | 140427
12 | 31:12.28 | 2:56.11 | 140428 | 153638
13 | 34:08.39 | 2:55.63 | 153639 | 166826
14 | 37:04.27 | 3:21.46 | 166827 | 181947
15 | 40:25.73 | 3:41.48 | 181948 | 198570
16 | 44:07.46 | 2:50.47 | 198571 | 211367
17 | 46:58.18 | 2:16.20 | 211368 | 221587
18 | 49:14.38 | 3:38.59 | 221588 | 237996
19 | 52:53.22 | 3:27.74 | 237997 | 253595
20 | 56:21.21 | 2:13.53 | 253596 | 263623
21 | 58:34.74 | 3:42.00 | 263624 | 280273
22 | 62:16.74 | 2:53.48 | 280274 | 293296

Track 1

Filename C:\EACRips\Rise Against – RPM10 (Revolutions Per Minute) (2013) [CD-FLAC] {FAT912-2}\01 Black Masks & Gasoline.wav

Pre-gap length 0:00:02.00

Peak level 96.6 %
Extraction speed 3.9 X
Track quality 99.9 %
Test CRC 529B959B
Copy CRC 529B959B
Accurately ripped (confidence 17) [D3C9B7B9] (AR v2)
Copy OK

Track 2

Filename C:\EACRips\Rise Against – RPM10 (Revolutions Per Minute) (2013) [CD-FLAC] {FAT912-2}\02 Heaven Knows.wav

Peak level 96.6 %
Extraction speed 5.0 X
Track quality 100.0 %
Test CRC 23DEB715
Copy CRC 23DEB715
Accurately ripped (confidence 16) [69804822] (AR v2)
Copy OK

Track 3

Filename C:\EACRips\Rise Against – RPM10 (Revolutions Per Minute) (2013) [CD-FLAC] {FAT912-2}\03 Dead Ringer.wav

Peak level 96.6 %
Extraction speed 4.5 X
Track quality 100.0 %
Test CRC C103EDCE
Copy CRC C103EDCE
Accurately ripped (confidence 16) [C1A56461] (AR v2)
Copy OK

Track 4

Filename C:\EACRips\Rise Against – RPM10 (Revolutions Per Minute) (2013) [CD-FLAC] {FAT912-2}\04 Halfway There.wav

Peak level 96.6 %
Extraction speed 5.6 X
Track quality 100.0 %
Test CRC 135FFE26
Copy CRC 135FFE26
Accurately ripped (confidence 17) [811EE4C1] (AR v2)
Copy OK

Track 5

Filename C:\EACRips\Rise Against – RPM10 (Revolutions Per Minute) (2013) [CD-FLAC] {FAT912-2}\05 Like The Angel.wav

Peak level 96.6 %
Extraction speed 5.7 X
Track quality 100.0 %
Test CRC 09E31E63
Copy CRC 09E31E63
Accurately ripped (confidence 17) [C3B2E797] (AR v2)
Copy OK

Track 6

Filename C:\EACRips\Rise Against – RPM10 (Revolutions Per Minute) (2013) [CD-FLAC] {FAT912-2}\06 Voices Off Camera.wav

Peak level 96.6 %
Extraction speed 5.7 X
Track quality 100.0 %
Test CRC 0973623A
Copy CRC 0973623A
Accurately ripped (confidence 17) [91BE56AD] (AR v2)
Copy OK

Track 7

Filename C:\EACRips\Rise Against – RPM10 (Revolutions Per Minute) (2013) [CD-FLAC] {FAT912-2}\07 Blood-Red, White & Blue.wav

Peak level 96.6 %
Extraction speed 5.7 X
Track quality 99.9 %
Test CRC 7E2B8E16
Copy CRC 7E2B8E16
Accurately ripped (confidence 17) [CE6D7739] (AR v2)
Copy OK

Track 8

Filename C:\EACRips\Rise Against – RPM10 (Revolutions Per Minute) (2013) [CD-FLAC] {FAT912-2}\08 Broken English.wav

Peak level 96.6 %
Extraction speed 6.7 X
Track quality 100.0 %
Test CRC A93172B2
Copy CRC A93172B2
Accurately ripped (confidence 17) [ACE74A71] (AR v2)
Copy OK

Track 9

Filename C:\EACRips\Rise Against – RPM10 (Revolutions Per Minute) (2013) [CD-FLAC] {FAT912-2}\09 Last Chance Blueprint.wav

Peak level 96.6 %
Extraction speed 6.3 X
Track quality 100.0 %
Test CRC 1CD61898
Copy CRC 1CD61898
Accurately ripped (confidence 17) [C73F0291] (AR v2)
Copy OK

Track 10

Filename C:\EACRips\Rise Against – RPM10 (Revolutions Per Minute) (2013) [CD-FLAC] {FAT912-2}\10 To The Core.wav

Peak level 96.6 %
Extraction speed 4.6 X
Track quality 99.8 %
Test CRC 4B67FC9B
Copy CRC 4B67FC9B
Accurately ripped (confidence 17) [F1E3115E] (AR v2)
Copy OK

Track 11

Filename C:\EACRips\Rise Against – RPM10 (Revolutions Per Minute) (2013) [CD-FLAC] {FAT912-2}\11 Torches.wav

Peak level 96.6 %
Extraction speed 7.3 X
Track quality 100.0 %
Test CRC A77D86EE
Copy CRC A77D86EE
Accurately ripped (confidence 17) [BBC48C3A] (AR v2)
Copy OK

Track 12

Filename C:\EACRips\Rise Against – RPM10 (Revolutions Per Minute) (2013) [CD-FLAC] {FAT912-2}\12 Amber Changing.wav

Peak level 96.6 %
Extraction speed 7.2 X
Track quality 100.0 %
Test CRC 7398096F
Copy CRC 7398096F
Accurately ripped (confidence 17) [6CABF37C] (AR v2)
Copy OK

Track 13

Filename C:\EACRips\Rise Against – RPM10 (Revolutions Per Minute) (2013) [CD-FLAC] {FAT912-2}\13 Black Masks & Gasoline (demo).wav

Peak level 100.0 %
Extraction speed 7.4 X
Track quality 100.0 %
Test CRC 54313002
Copy CRC 54313002
Accurately ripped (confidence 17) [37C3630C] (AR v2)
Copy OK

Track 14

Filename C:\EACRips\Rise Against – RPM10 (Revolutions Per Minute) (2013) [CD-FLAC] {FAT912-2}\14 Heaven Knows (demo).wav

Peak level 100.0 %
Extraction speed 7.7 X
Track quality 100.0 %
Test CRC 8DBB7D1C
Copy CRC 8DBB7D1C
Accurately ripped (confidence 17) [56748CE9] (AR v2)
Copy OK

Track 15

Filename C:\EACRips\Rise Against – RPM10 (Revolutions Per Minute) (2013) [CD-FLAC] {FAT912-2}\15 Halfway There (demo).wav

Peak level 100.0 %
Extraction speed 8.0 X
Track quality 100.0 %
Test CRC 16844E5E
Copy CRC 16844E5E
Accurately ripped (confidence 17) [67D1D225] (AR v2)
Copy OK

Track 16

Filename C:\EACRips\Rise Against – RPM10 (Revolutions Per Minute) (2013) [CD-FLAC] {FAT912-2}\16 Like The Angel (demo).wav

Peak level 100.0 %
Extraction speed 6.6 X
Track quality 99.9 %
Test CRC F5152E2C
Copy CRC F5152E2C
Accurately ripped (confidence 17) [B45D709F] (AR v2)
Copy OK

Track 17

Filename C:\EACRips\Rise Against – RPM10 (Revolutions Per Minute) (2013) [CD-FLAC] {FAT912-2}\17 Voices Off Camera (demo).wav

Peak level 100.0 %
Extraction speed 7.6 X
Track quality 100.0 %
Test CRC A242DE99
Copy CRC A242DE99
Accurately ripped (confidence 17) [849002F6] (AR v2)
Copy OK

Track 18

Filename C:\EACRips\Rise Against – RPM10 (Revolutions Per Minute) (2013) [CD-FLAC] {FAT912-2}\18 Blood-Red, White & Blue (demo).wav

Peak level 100.0 %
Extraction speed 7.4 X
Track quality 99.9 %
Test CRC 51FD741E
Copy CRC 51FD741E
Accurately ripped (confidence 16) [305EF417] (AR v2)
Copy OK

Track 19

Filename C:\EACRips\Rise Against – RPM10 (Revolutions Per Minute) (2013) [CD-FLAC] {FAT912-2}\19 Broken English (demo).wav

Peak level 100.0 %
Extraction speed 8.6 X
Track quality 100.0 %
Test CRC AC633498
Copy CRC AC633498
Accurately ripped (confidence 17) [6BB6E5ED] (AR v2)
Copy OK

Track 20

Filename C:\EACRips\Rise Against – RPM10 (Revolutions Per Minute) (2013) [CD-FLAC] {FAT912-2}\20 Last Chance Blueprint (demo).wav

Peak level 100.0 %
Extraction speed 8.0 X
Track quality 100.0 %
Test CRC 1942F1DC
Copy CRC 1942F1DC
Accurately ripped (confidence 17) [3C423000] (AR v2)
Copy OK

Track 21

Filename C:\EACRips\Rise Against – RPM10 (Revolutions Per Minute) (2013) [CD-FLAC] {FAT912-2}\21 Torches (demo).wav

Peak level 100.0 %
Extraction speed 8.9 X
Track quality 100.0 %
Test CRC 6A96271D
Copy CRC 6A96271D
Accurately ripped (confidence 17) [48604F6C] (AR v2)
Copy OK

Track 22

Filename C:\EACRips\Rise Against – RPM10 (Revolutions Per Minute) (2013) [CD-FLAC] {FAT912-2}\22 Amber Changing (demo).wav

Peak level 100.0 %
Extraction speed 7.5 X
Track quality 99.9 %
Test CRC 025C89BC
Copy CRC 025C89BC
Accurately ripped (confidence 17) [48CFF4A7] (AR v2)
Copy OK

All tracks accurately ripped

No errors occurred

End of status report

—- CUETools DB Plugin V2.1.3

[CTDB TOCID: o5ycTfMxVvNsdF0PECqBCRYIjYg-] found, Submit result: o5ycTfMxVvNsdF0PECqBCRYIjYg- has been confirmed
[8dc65671] (93/97) Accurately ripped
[4b6e492b] (01/97) No match
[757a1713] (01/97) No match
[d49f6c67] (01/97) No match
[96067f7d] (01/97) No match

==== Log checksum F80161F2C9869996C8DC845B4CAC52DA05D47FEE5991145ADCFA72042AE615E9 ====

REM DATE 2003
REM DISCID 3D0F4616
PERFORMER “Rise Against”
TITLE “RPM10”
REM DISCNUMBER 1
REM TOTALDISCS 1
FILE “01 Black Masks & Gasoline.m4a” WAVE
TRACK 01 AUDIO
PERFORMER “Rise Against”
TITLE “Black Masks & Gasoline”
INDEX 01 00:00:00
FILE “02 Heaven Knows.m4a” WAVE
TRACK 02 AUDIO
PERFORMER “Rise Against”
TITLE “Heaven Knows”
INDEX 01 00:00:00
FILE “03 Dead Ringer.m4a” WAVE
TRACK 03 AUDIO
PERFORMER “Rise Against”
TITLE “Dead Ringer”
INDEX 01 00:00:00
FILE “04 Halfway There.m4a” WAVE
TRACK 04 AUDIO
PERFORMER “Rise Against”
TITLE “Halfway There”
INDEX 01 00:00:00
FILE “05 Like the Angel.m4a” WAVE
TRACK 05 AUDIO
PERFORMER “Rise Against”
TITLE “Like the Angel”
INDEX 01 00:00:00
FILE “06 Voices Off Camera.m4a” WAVE
TRACK 06 AUDIO
PERFORMER “Rise Against”
TITLE “Voices Off Camera”
INDEX 01 00:00:00
FILE “07 Blood-Red, White & Blue.m4a” WAVE
TRACK 07 AUDIO
PERFORMER “Rise Against”
TITLE “Blood-Red, White & Blue”
INDEX 01 00:00:00
FILE “08 Broken English.m4a” WAVE
TRACK 08 AUDIO
PERFORMER “Rise Against”
TITLE “Broken English”
INDEX 01 00:00:00
FILE “09 Last Chance Blueprint.m4a” WAVE
TRACK 09 AUDIO
PERFORMER “Rise Against”
TITLE “Last Chance Blueprint”
INDEX 01 00:00:00
FILE “10 To the Core.m4a” WAVE
TRACK 10 AUDIO
PERFORMER “Rise Against”
TITLE “To the Core”
INDEX 01 00:00:00
FILE “11 Torches.m4a” WAVE
TRACK 11 AUDIO
PERFORMER “Rise Against”
TITLE “Torches”
INDEX 01 00:00:00
FILE “12 Amber Changing.m4a” WAVE
TRACK 12 AUDIO
PERFORMER “Rise Against”
TITLE “Amber Changing”
INDEX 01 00:00:00
FILE “13 Black Masks & Gasoline (Demo).m4a” WAVE
TRACK 13 AUDIO
PERFORMER “Rise Against”
TITLE “Black Masks & Gasoline (Demo)”
INDEX 01 00:00:00
FILE “14 Heaven Knows (Demo).m4a” WAVE
TRACK 14 AUDIO
PERFORMER “Rise Against”
TITLE “Heaven Knows (Demo)”
INDEX 01 00:00:00
FILE “15 Halfway There (Demo).m4a” WAVE
TRACK 15 AUDIO
PERFORMER “Rise Against”
TITLE “Halfway There (Demo)”
INDEX 01 00:00:00
FILE “16 Like the Angel (Demo).m4a” WAVE
TRACK 16 AUDIO
PERFORMER “Rise Against”
TITLE “Like the Angel (Demo)”
INDEX 01 00:00:00
FILE “17 Voices Off Camera (Demo).m4a” WAVE
TRACK 17 AUDIO
PERFORMER “Rise Against”
TITLE “Voices Off Camera (Demo)”
INDEX 01 00:00:00
FILE “18 Blood-Red, White & Blue (Demo).m4a” WAVE
TRACK 18 AUDIO
PERFORMER “Rise Against”
TITLE “Blood-Red, White & Blue (Demo)”
INDEX 01 00:00:00
FILE “19 Broken English (Demo).m4a” WAVE
TRACK 19 AUDIO
PERFORMER “Rise Against”
TITLE “Broken English (Demo)”
INDEX 01 00:00:00
FILE “20 Last Chance Blueprint (Demo).m4a” WAVE
TRACK 20 AUDIO
PERFORMER “Rise Against”
TITLE “Last Chance Blueprint (Demo)”
INDEX 01 00:00:00
FILE “21 Torches (Demo).m4a” WAVE
TRACK 21 AUDIO
PERFORMER “Rise Against”
TITLE “Torches (Demo)”
INDEX 01 00:00:00
FILE “22 Amber Changing (demo).m4a” WAVE
TRACK 22 AUDIO
PERFORMER “Rise Against”
TITLE “Amber Changing (demo)”
INDEX 01 00:00:00


Leave a Reply

Your email address will not be published. Required fields are marked *

This site uses Akismet to reduce spam. Learn how your comment data is processed.