Rise Against – Long Forgotten Songs: B-sides & Covers 2000-2013




[Total: 0    Average: 0/5]

Artist: Rise Against
Year: 2013
Genre: Rock
Notes: Discogs
Add. Notes:
Cover incl.: Yes
Encoder: ALAC
Bitrate: ~1000 kBit/s (44.1 kHz/16 Bit/s)
Log & Cue incl.: Yes
Size: 569,7 MB
Password: “slam” (without ” “)


All Downloads/Hosters are compatible

Download 1
KatFile.com
Turbobit.net
FileFactory.com
Rapidgator.net
Download 2
KatFile.com
Turbobit.net
FileFactory.com
Rapidgator.net
Download 3
KatFile.com
Turbobit.net
FileFactory.com
Rapidgator.net

Tracklist:

1 Historia Calamitatum 03:22
2 Death Blossoms 02:34
3 Elective Amnesia 03:54
4 Grammatizator 02:09
5 Blind 02:33
6 Everchanging 04:21
7 Generation Lost 03:48
8 Dirt And Roses 03:13
9 Ballad Of Hollis Brown 05:11
10 Sight Unseen 03:55
11 Lanterns 03:51
12 Making Christmas 03:26
13 Join The Ranks 01:28
14 Built To Last 01:54
15 Voice Of Dissent 01:58
16 Little Boxes 01:29
17 Give It All 02:49
18 Minor Threat 01:39
19 Obstructed View 02:02
20 But Tonight We Dance 02:47
21 Nervous Breakdown 02:07
22 Gethsemane 02:29
23 Boy's No Good 01:18
24 Any Way You Want It 02:57
25 Sliver 02:03
26 The Ghost Of Tom Joad 08:36

EAC-Log, CUE-Sheed & NFO:

Click to open spoiler
Exact Audio Copy V1.0 beta 3 from 29. August 2011

EAC extraction logfile from 6. September 2013, 14:20

Rise Against / Long Forgotten Songs: B-Sides & Covers 2000-2013

Used drive : PIONEER BD-RW BDR-208D Adapter: 0 ID: 0

Read mode : Secure
Utilize accurate stream : Yes
Defeat audio cache : Yes
Make use of C2 pointers : No

Read offset correction : 667
Overread into Lead-In and Lead-Out : No
Fill up missing offset samples with silence : Yes
Delete leading and trailing silent blocks : No
Null samples used in CRC calculations : Yes
Used interface : Native Win32 interface for Win NT & 2000
Gap handling : Appended to previous track

Used output format : User Defined Encoder
Selected bitrate : 1024 kBit/s
Quality : High
Add ID3 tag : No
Command line compressor : C:\Program Files (x86)\Exact Audio Copy\FLAC 1.2.1\flac.exe
Additional command line options : -8 -V %source%

TOC of the extracted CD

Track | Start | Length | Start sector | End sector
———————————————————
1 | 0:00.00 | 3:22.56 | 0 | 15205
2 | 3:22.56 | 2:34.39 | 15206 | 26794
3 | 5:57.20 | 3:54.62 | 26795 | 44406
4 | 9:52.07 | 2:09.39 | 44407 | 54120
5 | 12:01.46 | 2:34.15 | 54121 | 65685
6 | 14:35.61 | 4:21.68 | 65686 | 85328
7 | 18:57.54 | 3:48.35 | 85329 | 102463
8 | 22:46.14 | 3:13.34 | 102464 | 116972
9 | 25:59.48 | 5:11.72 | 116973 | 140369
10 | 31:11.45 | 3:55.51 | 140370 | 158045
11 | 35:07.21 | 3:51.56 | 158046 | 175426
12 | 38:59.02 | 3:27.15 | 175427 | 190966
13 | 42:26.17 | 1:28.67 | 190967 | 197633
14 | 43:55.09 | 1:54.45 | 197634 | 206228
15 | 45:49.54 | 1:59.63 | 206229 | 215216
16 | 47:49.42 | 1:29.35 | 215217 | 221926
17 | 49:19.02 | 2:49.32 | 221927 | 234633
18 | 52:08.34 | 1:40.04 | 234634 | 242137
19 | 53:48.38 | 2:03.63 | 242138 | 251425
20 | 55:52.26 | 2:47.03 | 251426 | 263953
21 | 58:39.29 | 2:08.64 | 263954 | 273617
22 | 60:48.18 | 2:29.57 | 273618 | 284849
23 | 63:18.00 | 1:19.39 | 284850 | 290813
24 | 64:37.39 | 2:57.33 | 290814 | 304121
25 | 67:34.72 | 2:03.63 | 304122 | 313409
26 | 69:38.60 | 8:37.07 | 313410 | 352191

Track 1

Filename I:\FiH\Rise_Against-Long_Forgotten_Songs-_B-Sides_&_Covers_2000-2013-CD-FLAC-2013-FiH\01-Rise_Against-Historia_Calamitatum.wav

Pre-gap length 0:00:02.00

Peak level 100.0 %
Extraction speed 4.7 X
Track quality 100.0 %
Test CRC 6F9C52EC
Copy CRC 6F9C52EC
Track not present in AccurateRip database
Copy OK

Track 2

Filename I:\FiH\Rise_Against-Long_Forgotten_Songs-_B-Sides_&_Covers_2000-2013-CD-FLAC-2013-FiH\02-Rise_Against-Death_Blossoms.wav

Peak level 100.0 %
Extraction speed 4.7 X
Track quality 100.0 %
Test CRC 65C98BC2
Copy CRC 65C98BC2
Track not present in AccurateRip database
Copy OK

Track 3

Filename I:\FiH\Rise_Against-Long_Forgotten_Songs-_B-Sides_&_Covers_2000-2013-CD-FLAC-2013-FiH\03-Rise_Against-Elective_Amnesia.wav

Peak level 100.0 %
Extraction speed 5.3 X
Track quality 100.0 %
Test CRC 83A6AA75
Copy CRC 83A6AA75
Track not present in AccurateRip database
Copy OK

Track 4

Filename I:\FiH\Rise_Against-Long_Forgotten_Songs-_B-Sides_&_Covers_2000-2013-CD-FLAC-2013-FiH\04-Rise_Against-Grammatizator.wav

Peak level 100.0 %
Extraction speed 5.1 X
Track quality 100.0 %
Test CRC DAABFFCF
Copy CRC DAABFFCF
Track not present in AccurateRip database
Copy OK

Track 5

Filename I:\FiH\Rise_Against-Long_Forgotten_Songs-_B-Sides_&_Covers_2000-2013-CD-FLAC-2013-FiH\05-Rise_Against-Blind.wav

Peak level 100.0 %
Extraction speed 5.4 X
Track quality 100.0 %
Test CRC D889B7A0
Copy CRC D889B7A0
Track not present in AccurateRip database
Copy OK

Track 6

Filename I:\FiH\Rise_Against-Long_Forgotten_Songs-_B-Sides_&_Covers_2000-2013-CD-FLAC-2013-FiH\06-Rise_Against-Everchanging_(Acoustic).wav

Peak level 100.0 %
Extraction speed 5.4 X
Track quality 99.9 %
Test CRC 36D6E942
Copy CRC 36D6E942
Track not present in AccurateRip database
Copy OK

Track 7

Filename I:\FiH\Rise_Against-Long_Forgotten_Songs-_B-Sides_&_Covers_2000-2013-CD-FLAC-2013-FiH\07-Rise_Against-Generation_Lost.wav

Peak level 100.0 %
Extraction speed 6.4 X
Track quality 100.0 %
Test CRC 68CBBF8E
Copy CRC 68CBBF8E
Track not present in AccurateRip database
Copy OK

Track 8

Filename I:\FiH\Rise_Against-Long_Forgotten_Songs-_B-Sides_&_Covers_2000-2013-CD-FLAC-2013-FiH\08-Rise_Against-Dirt_And_Roses.wav

Peak level 100.0 %
Extraction speed 6.4 X
Track quality 100.0 %
Test CRC E973C913
Copy CRC E973C913
Track not present in AccurateRip database
Copy OK

Track 9

Filename I:\FiH\Rise_Against-Long_Forgotten_Songs-_B-Sides_&_Covers_2000-2013-CD-FLAC-2013-FiH\09-Rise_Against-Ballad_Of_Hollis_Brown.wav

Peak level 100.0 %
Extraction speed 7.2 X
Track quality 100.0 %
Test CRC 5316F5DE
Copy CRC 5316F5DE
Track not present in AccurateRip database
Copy OK

Track 10

Filename I:\FiH\Rise_Against-Long_Forgotten_Songs-_B-Sides_&_Covers_2000-2013-CD-FLAC-2013-FiH\10-Rise_Against-Sight_Unseen.wav

Peak level 100.0 %
Extraction speed 6.3 X
Track quality 99.9 %
Test CRC 4395D804
Copy CRC 4395D804
Track not present in AccurateRip database
Copy OK

Track 11

Filename I:\FiH\Rise_Against-Long_Forgotten_Songs-_B-Sides_&_Covers_2000-2013-CD-FLAC-2013-FiH\11-Rise_Against-Lanterns.wav

Peak level 100.0 %
Extraction speed 6.4 X
Track quality 99.9 %
Test CRC B36B9193
Copy CRC B36B9193
Track not present in AccurateRip database
Copy OK

Track 12

Filename I:\FiH\Rise_Against-Long_Forgotten_Songs-_B-Sides_&_Covers_2000-2013-CD-FLAC-2013-FiH\12-Rise_Against-Making_Christmas.wav

Peak level 100.0 %
Extraction speed 7.3 X
Track quality 100.0 %
Test CRC 81BC6387
Copy CRC 81BC6387
Track not present in AccurateRip database
Copy OK

Track 13

Filename I:\FiH\Rise_Against-Long_Forgotten_Songs-_B-Sides_&_Covers_2000-2013-CD-FLAC-2013-FiH\13-Rise_Against-Join_The_Ranks.wav

Peak level 100.0 %
Extraction speed 6.0 X
Track quality 100.0 %
Test CRC B1E73B57
Copy CRC B1E73B57
Track not present in AccurateRip database
Copy OK

Track 14

Filename I:\FiH\Rise_Against-Long_Forgotten_Songs-_B-Sides_&_Covers_2000-2013-CD-FLAC-2013-FiH\14-Rise_Against-Built_To_Last.wav

Peak level 100.0 %
Extraction speed 6.5 X
Track quality 100.0 %
Test CRC 3A4BD572
Copy CRC 3A4BD572
Track not present in AccurateRip database
Copy OK

Track 15

Filename I:\FiH\Rise_Against-Long_Forgotten_Songs-_B-Sides_&_Covers_2000-2013-CD-FLAC-2013-FiH\15-Rise_Against-Voice_Of_Dissent.wav

Peak level 100.0 %
Extraction speed 5.5 X
Track quality 99.9 %
Test CRC 79D731E0
Copy CRC 79D731E0
Track not present in AccurateRip database
Copy OK

Track 16

Filename I:\FiH\Rise_Against-Long_Forgotten_Songs-_B-Sides_&_Covers_2000-2013-CD-FLAC-2013-FiH\16-Rise_Against-Little_Boxes.wav

Peak level 100.0 %
Extraction speed 6.2 X
Track quality 100.0 %
Test CRC B74F85E8
Copy CRC B74F85E8
Track not present in AccurateRip database
Copy OK

Track 17

Filename I:\FiH\Rise_Against-Long_Forgotten_Songs-_B-Sides_&_Covers_2000-2013-CD-FLAC-2013-FiH\17-Rise_Against-Give_It_All.wav

Peak level 100.0 %
Extraction speed 7.4 X
Track quality 100.0 %
Test CRC F49C3717
Copy CRC F49C3717
Track not present in AccurateRip database
Copy OK

Track 18

Filename I:\FiH\Rise_Against-Long_Forgotten_Songs-_B-Sides_&_Covers_2000-2013-CD-FLAC-2013-FiH\18-Rise_Against-Minor_Threat.wav

Peak level 100.0 %
Extraction speed 6.6 X
Track quality 100.0 %
Test CRC D4D2E769
Copy CRC D4D2E769
Track not present in AccurateRip database
Copy OK

Track 19

Filename I:\FiH\Rise_Against-Long_Forgotten_Songs-_B-Sides_&_Covers_2000-2013-CD-FLAC-2013-FiH\19-Rise_Against-Obstructed_View.wav

Peak level 100.0 %
Extraction speed 5.7 X
Track quality 99.9 %
Test CRC E5303891
Copy CRC E5303891
Track not present in AccurateRip database
Copy OK

Track 20

Filename I:\FiH\Rise_Against-Long_Forgotten_Songs-_B-Sides_&_Covers_2000-2013-CD-FLAC-2013-FiH\20-Rise_Against-But_Tonight_We_Dance.wav

Peak level 100.0 %
Extraction speed 7.6 X
Track quality 100.0 %
Test CRC 05D91E9E
Copy CRC 05D91E9E
Track not present in AccurateRip database
Copy OK

Track 21

Filename I:\FiH\Rise_Against-Long_Forgotten_Songs-_B-Sides_&_Covers_2000-2013-CD-FLAC-2013-FiH\21-Rise_Against-Nervous_Breakdown.wav

Peak level 100.0 %
Extraction speed 7.3 X
Track quality 100.0 %
Test CRC 8F730873
Copy CRC 8F730873
Track not present in AccurateRip database
Copy OK

Track 22

Filename I:\FiH\Rise_Against-Long_Forgotten_Songs-_B-Sides_&_Covers_2000-2013-CD-FLAC-2013-FiH\22-Rise_Against-Gethsemane.wav

Peak level 100.0 %
Extraction speed 7.5 X
Track quality 100.0 %
Test CRC 5450FACF
Copy CRC 5450FACF
Track not present in AccurateRip database
Copy OK

Track 23

Filename I:\FiH\Rise_Against-Long_Forgotten_Songs-_B-Sides_&_Covers_2000-2013-CD-FLAC-2013-FiH\23-Rise_Against-Boy’s_No_Good.wav

Peak level 100.0 %
Extraction speed 6.4 X
Track quality 100.0 %
Test CRC EF5DD28F
Copy CRC EF5DD28F
Track not present in AccurateRip database
Copy OK

Track 24

Filename I:\FiH\Rise_Against-Long_Forgotten_Songs-_B-Sides_&_Covers_2000-2013-CD-FLAC-2013-FiH\24-Rise_Against-Any_Way_You_Want_It.wav

Peak level 98.5 %
Extraction speed 7.9 X
Track quality 100.0 %
Test CRC 253565CB
Copy CRC 253565CB
Track not present in AccurateRip database
Copy OK

Track 25

Filename I:\FiH\Rise_Against-Long_Forgotten_Songs-_B-Sides_&_Covers_2000-2013-CD-FLAC-2013-FiH\25-Rise_Against-Sliver.wav

Peak level 100.0 %
Extraction speed 5.5 X
Track quality 99.9 %
Test CRC 5E71C0B0
Copy CRC 5E71C0B0
Track not present in AccurateRip database
Copy OK

Track 26

Filename I:\FiH\Rise_Against-Long_Forgotten_Songs-_B-Sides_&_Covers_2000-2013-CD-FLAC-2013-FiH\26-Rise_Against-The_Ghost_Of_Tom_Joad.wav

Peak level 100.0 %
Extraction speed 8.4 X
Track quality 100.0 %
Test CRC 49754046
Copy CRC 49754046
Track not present in AccurateRip database
Copy OK

None of the tracks are present in the AccurateRip database

No errors occurred

End of status report

==== Log checksum A034A1DF060B8572AD7CDBF4846E3913DE91A2D7025A9438B4BD1A126CDA407D ====

REM DATE 2013
REM DISCID 7512571A
PERFORMER “Rise Against”
TITLE “Long Forgotten Songs: B-Sides & Covers 2000-2013”
REM DISCNUMBER 1
REM TOTALDISCS 1
FILE “01 Historia calamitatum.m4a” WAVE
TRACK 01 AUDIO
TITLE “Historia calamitatum”
PERFORMER “Rise Against”
INDEX 01 00:00:00
FILE “02 Death Blossoms.m4a” WAVE
TRACK 02 AUDIO
TITLE “Death Blossoms”
PERFORMER “Rise Against”
INDEX 01 00:00:00
FILE “03 Elective Amnesia.m4a” WAVE
TRACK 03 AUDIO
TITLE “Elective Amnesia”
PERFORMER “Rise Against”
INDEX 01 00:00:00
FILE “04 Grammatizator.m4a” WAVE
TRACK 04 AUDIO
TITLE “Grammatizator”
PERFORMER “Rise Against”
INDEX 01 00:00:00
FILE “05 Blind.m4a” WAVE
TRACK 05 AUDIO
TITLE “Blind”
PERFORMER “Rise Against”
INDEX 01 00:00:00
FILE “06 Everchanging (acoustic).m4a” WAVE
TRACK 06 AUDIO
TITLE “Everchanging (acoustic)”
PERFORMER “Rise Against”
INDEX 01 00:00:00
FILE “07 Generation Lost.m4a” WAVE
TRACK 07 AUDIO
TITLE “Generation Lost”
PERFORMER “Rise Against”
INDEX 01 00:00:00
FILE “08 Dirt and Roses.m4a” WAVE
TRACK 08 AUDIO
TITLE “Dirt and Roses”
PERFORMER “Rise Against”
INDEX 01 00:00:00
FILE “09 Ballad of Hollis Brown.m4a” WAVE
TRACK 09 AUDIO
TITLE “Ballad of Hollis Brown”
PERFORMER “Rise Against”
INDEX 01 00:00:00
FILE “10 Sight Unseen.m4a” WAVE
TRACK 10 AUDIO
TITLE “Sight Unseen”
PERFORMER “Rise Against”
INDEX 01 00:00:00
FILE “11 Lanterns.m4a” WAVE
TRACK 11 AUDIO
TITLE “Lanterns”
PERFORMER “Rise Against”
INDEX 01 00:00:00
FILE “12 Making Christmas.m4a” WAVE
TRACK 12 AUDIO
TITLE “Making Christmas”
PERFORMER “Rise Against”
INDEX 01 00:00:00
FILE “13 Join the Ranks.m4a” WAVE
TRACK 13 AUDIO
TITLE “Join the Ranks”
PERFORMER “Rise Against”
INDEX 01 00:00:00
FILE “14 Built to Last.m4a” WAVE
TRACK 14 AUDIO
TITLE “Built to Last”
PERFORMER “Rise Against”
INDEX 01 00:00:00
FILE “15 Voice of Dissent.m4a” WAVE
TRACK 15 AUDIO
TITLE “Voice of Dissent”
PERFORMER “Rise Against”
INDEX 01 00:00:00
FILE “16 Little Boxes.m4a” WAVE
TRACK 16 AUDIO
TITLE “Little Boxes”
PERFORMER “Rise Against”
INDEX 01 00:00:00
FILE “17 Give It All.m4a” WAVE
TRACK 17 AUDIO
TITLE “Give It All”
PERFORMER “Rise Against”
INDEX 01 00:00:00
FILE “18 Minor Threat.m4a” WAVE
TRACK 18 AUDIO
TITLE “Minor Threat”
PERFORMER “Rise Against”
INDEX 01 00:00:00
FILE “19 Obstructed View.m4a” WAVE
TRACK 19 AUDIO
TITLE “Obstructed View”
PERFORMER “Rise Against”
INDEX 01 00:00:00
FILE “20 But Tonight We Dance.m4a” WAVE
TRACK 20 AUDIO
TITLE “But Tonight We Dance”
PERFORMER “Rise Against”
INDEX 01 00:00:00
FILE “21 Nervous Breakdown.m4a” WAVE
TRACK 21 AUDIO
TITLE “Nervous Breakdown”
PERFORMER “Rise Against”
INDEX 01 00:00:00
FILE “22 Gethsemane.m4a” WAVE
TRACK 22 AUDIO
TITLE “Gethsemane”
PERFORMER “Rise Against”
INDEX 01 00:00:00
FILE “23 Boy’s No Good.m4a” WAVE
TRACK 23 AUDIO
TITLE “Boy’s No Good”
PERFORMER “Rise Against”
INDEX 01 00:00:00
FILE “24 Any Way You Want It.m4a” WAVE
TRACK 24 AUDIO
TITLE “Any Way You Want It”
PERFORMER “Rise Against”
INDEX 01 00:00:00
FILE “25 Sliver.m4a” WAVE
TRACK 25 AUDIO
TITLE “Sliver”
PERFORMER “Rise Against”
INDEX 01 00:00:00
FILE “26 The Ghost of Tom Joad.m4a” WAVE
TRACK 26 AUDIO
TITLE “The Ghost of Tom Joad”
PERFORMER “Rise Against”
INDEX 01 00:00:00


Spread the Download

Leave a Reply

Your email address will not be published. Required fields are marked *

Enter the text from the image below
 

This site uses Akismet to reduce spam. Learn how your comment data is processed.