Rise Against – Endgame (Australian Edition)




[Total: 0    Average: 0/5]

Artist: Rise Against
Year: 2011
Genre: Rock
Notes: Discogs
Add. Notes: Australian Edition
Cover incl.: Yes
Encoder: FLAC
Bitrate: ~1100 kBit/s (44.1 kHz/16 Bit/s)
Log & Cue incl.: Yes
Size: 361 MB
Password: “slam” (without ” “)


All Downloads/Hosters are compatible

Download 1
Share-online.biz
KatFile.com
Rapidgator.net
Mexa.sh
Download 2
Share-online.biz
KatFile.com
Rapidgator.net
Mexa.sh

Tracklist:

1. Architects
2. Help Is On The Way
3. Make It Stop (September's 
Children)
4. Disparity By Design
5. Satellite
6. Midnight Hands
7. Survivor Guilt
8. Broken Mirrors
9. Wait For Me
10. A Gentlemen's Coup
11. This Is Letting Go
12. Endgame
Bonus Track
13. The Good Left Undone (Live)

EAC-Log, CUE-Sheed & NFO:

Click to open spoiler
Exact Audio Copy V0.99 prebeta 5 from 4. May 2009

EAC extraction logfile from 12. March 2011, 16:43

Rise Against / Endgame

Used drive : PIONEER DVD-RW DVR-212 Adapter: 6 ID: 0

Read mode : Secure
Utilize accurate stream : Yes
Defeat audio cache : Yes
Make use of C2 pointers : No

Read offset correction : 48
Overread into Lead-In and Lead-Out : No
Fill up missing offset samples with silence : Yes
Delete leading and trailing silent blocks : No
Null samples used in CRC calculations : Yes
Used interface : Native Win32 interface for Win NT & 2000
Gap handling : Appended to previous track

Used output format : User Defined Encoder
Selected bitrate : 768 kBit/s
Quality : High
Add ID3 tag : No
Command line compressor : C:\Program Files (x86)\Exact Audio Copy\Flac\flac.exe
Additional command line options : -V -8 -T “artist=%a” -T “title=%t” -T “album=%g” -T “date=%y” -T “tracknumber=%n” -T “genre=%m” %s

TOC of the extracted CD

Track | Start | Length | Start sector | End sector
———————————————————
1 | 0:00.00 | 3:42.47 | 0 | 16696
2 | 3:42.47 | 3:57.36 | 16697 | 34507
3 | 7:40.08 | 3:54.59 | 34508 | 52116
4 | 11:34.67 | 3:48.48 | 52117 | 69264
5 | 15:23.40 | 3:58.43 | 69265 | 87157
6 | 19:22.08 | 4:17.42 | 87158 | 106474
7 | 23:39.50 | 3:59.67 | 106475 | 124466
8 | 27:39.42 | 3:54.52 | 124467 | 142068
9 | 31:34.19 | 3:39.52 | 142069 | 158545
10 | 35:13.71 | 3:46.11 | 158546 | 175506
11 | 39:00.07 | 3:41.15 | 175507 | 192096
12 | 42:41.22 | 3:24.63 | 192097 | 207459
13 | 46:06.10 | 3:02.70 | 207460 | 221179

Track 1

Filename D:\eac\01-Rise Against-Architects.wav

Pre-gap length 0:00:02.00

Peak level 100.0 %
Track quality 100.0 %
Test CRC D2FCDA1B
Copy CRC D2FCDA1B
Track not present in AccurateRip database
Copy OK

Track 2

Filename D:\eac\02-Rise Against-Help Is On The Way.wav

Peak level 100.0 %
Track quality 100.0 %
Test CRC 9EB6940D
Copy CRC 9EB6940D
Track not present in AccurateRip database
Copy OK

Track 3

Filename D:\eac\03-Rise Against-Make It Stop (September’s Children).wav

Peak level 100.0 %
Track quality 99.9 %
Test CRC C1627AF6
Copy CRC C1627AF6
Track not present in AccurateRip database
Copy OK

Track 4

Filename D:\eac\04-Rise Against-Disparity By Design.wav

Peak level 100.0 %
Track quality 100.0 %
Test CRC 9185FECD
Copy CRC 9185FECD
Track not present in AccurateRip database
Copy OK

Track 5

Filename D:\eac\05-Rise Against-Satellite.wav

Peak level 100.0 %
Track quality 100.0 %
Test CRC 248B5E69
Copy CRC 248B5E69
Track not present in AccurateRip database
Copy OK

Track 6

Filename D:\eac\06-Rise Against-Midnight Hands.wav

Peak level 100.0 %
Track quality 100.0 %
Test CRC 18E2A8FE
Copy CRC 18E2A8FE
Track not present in AccurateRip database
Copy OK

Track 7

Filename D:\eac\07-Rise Against-Survivor Guilt.wav

Peak level 100.0 %
Track quality 100.0 %
Test CRC B46E9FB9
Copy CRC B46E9FB9
Track not present in AccurateRip database
Copy OK

Track 8

Filename D:\eac\08-Rise Against-Broken Mirrors.wav

Peak level 100.0 %
Track quality 100.0 %
Test CRC 8BE21BB1
Copy CRC 8BE21BB1
Track not present in AccurateRip database
Copy OK

Track 9

Filename D:\eac\09-Rise Against-Wait For Me.wav

Peak level 100.0 %
Track quality 100.0 %
Test CRC 52381EE9
Copy CRC 52381EE9
Track not present in AccurateRip database
Copy OK

Track 10

Filename D:\eac\10-Rise Against-A Gentlemen’s Coup.wav

Peak level 100.0 %
Track quality 99.9 %
Test CRC CBC2CCD8
Copy CRC CBC2CCD8
Track not present in AccurateRip database
Copy OK

Track 11

Filename D:\eac\11-Rise Against-This Is Letting Go.wav

Peak level 100.0 %
Track quality 100.0 %
Test CRC C88D1964
Copy CRC C88D1964
Track not present in AccurateRip database
Copy OK

Track 12

Filename D:\eac\12-Rise Against-Endgame.wav

Peak level 100.0 %
Track quality 100.0 %
Test CRC 344AB991
Copy CRC 344AB991
Track not present in AccurateRip database
Copy OK

Track 13

Filename D:\eac\13-Rise Against-The Good Left Undone (Live).wav

Pre-gap length 0:00:00.43

Peak level 99.1 %
Track quality 100.0 %
Test CRC 065283D0
Copy CRC 065283D0
Track not present in AccurateRip database
Copy OK

None of the tracks are present in the AccurateRip database

No errors occurred

End of status report

REM GENRE Punk
REM DATE 2011
REM DISCID B00B850D
REM COMMENT “ExactAudioCopy v0.99pb5”
PERFORMER “Rise Against”
TITLE “Endgame”
FILE “01-Rise Against-Architects.wav” WAVE
TRACK 01 AUDIO
TITLE “Architects”
PERFORMER “Rise Against”
FLAGS DCP
INDEX 01 00:00:00
FILE “02-Rise Against-Help Is On The Way.wav” WAVE
TRACK 02 AUDIO
TITLE “Help Is On The Way”
PERFORMER “Rise Against”
FLAGS DCP
INDEX 01 00:00:00
FILE “03-Rise Against-Make It Stop (September’s Children).wav” WAVE
TRACK 03 AUDIO
TITLE “Make It Stop (September’s Children)”
PERFORMER “Rise Against”
FLAGS DCP
INDEX 01 00:00:00
FILE “04-Rise Against-Disparity By Design.wav” WAVE
TRACK 04 AUDIO
TITLE “Disparity By Design”
PERFORMER “Rise Against”
FLAGS DCP
INDEX 01 00:00:00
FILE “05-Rise Against-Satellite.wav” WAVE
TRACK 05 AUDIO
TITLE “Satellite”
PERFORMER “Rise Against”
FLAGS DCP
INDEX 01 00:00:00
FILE “06-Rise Against-Midnight Hands.wav” WAVE
TRACK 06 AUDIO
TITLE “Midnight Hands”
PERFORMER “Rise Against”
FLAGS DCP
INDEX 01 00:00:00
FILE “07-Rise Against-Survivor Guilt.wav” WAVE
TRACK 07 AUDIO
TITLE “Survivor Guilt”
PERFORMER “Rise Against”
FLAGS DCP
INDEX 01 00:00:00
FILE “08-Rise Against-Broken Mirrors.wav” WAVE
TRACK 08 AUDIO
TITLE “Broken Mirrors”
PERFORMER “Rise Against”
FLAGS DCP
INDEX 01 00:00:00
FILE “09-Rise Against-Wait For Me.wav” WAVE
TRACK 09 AUDIO
TITLE “Wait For Me”
PERFORMER “Rise Against”
FLAGS DCP
INDEX 01 00:00:00
FILE “10-Rise Against-A Gentlemen’s Coup.wav” WAVE
TRACK 10 AUDIO
TITLE “A Gentlemen’s Coup”
PERFORMER “Rise Against”
FLAGS DCP
INDEX 01 00:00:00
FILE “11-Rise Against-This Is Letting Go.wav” WAVE
TRACK 11 AUDIO
TITLE “This Is Letting Go”
PERFORMER “Rise Against”
FLAGS DCP
INDEX 01 00:00:00
FILE “12-Rise Against-Endgame.wav” WAVE
TRACK 12 AUDIO
TITLE “Endgame”
PERFORMER “Rise Against”
FLAGS DCP
INDEX 01 00:00:00
TRACK 13 AUDIO
TITLE “The Good Left Undone (Live)”
PERFORMER “Rise Against”
INDEX 00 03:24:20
FILE “13-Rise Against-The Good Left Undone (Live).wav” WAVE
INDEX 01 00:00:00


Spread the Download

Leave a Reply

Your email address will not be published. Required fields are marked *

Enter the text from the image below
 

This site uses Akismet to reduce spam. Learn how your comment data is processed.