Rise Against – Appeal to Reason




Artist: Rise Against
Year: 2008
Genre: Hardcore
Notes: Discogs
Add. Notes:
Cover incl.: Yes
Encoder: FLAC
Bitrate: ~1000 kBit/s (44.1 kHz/16 Bit/s)
Log & Cue incl.: Yes
Size: 362 MB
Password: “slam” (without ” “)


All Downloads/Hosters are compatible

Download 1
KatFile.com
Turbobit.net
FileFactory.com
Rapidgator.net
Download 2
KatFile.com
Turbobit.net
FileFactory.com
Rapidgator.net

Tracklist:

1 - Collapse (Post-Amerika) - 3:19
2 - Long Forgotten Sons - 4:02
3 - Re-Education (Through Labor) - 
3:43
4 - The Dirt Whispered - 3:09
5 - Kotov Syndrome - 3:05
6 - From Heads Unworthy - 3:42
7 - The Strength To Go On - 3:27
8 - Audience Of One - 4:06
9 - Entertainment - 3:35
10 - Hero Of War - 4:13
11 - Savior - 4:02
12 - Hairline Fracture - 4:03
13 - Whereabouts Unknown - 4:02

EAC-Log, CUE-Sheed & NFO:

Click to open spoiler
X Lossless Decoder version 20181019 (151.1)

XLD extraction logfile from 2018-12-26 13:10:35 -0800

Rise Against / Appeal to Reason

Used drive : PIONEER BD-RW BDR-XD05 (revision 3.10)
Media type : Pressed CD

Ripper mode : XLD Secure Ripper
Disable audio cache : OK for the drive with a cache less than 1375KiB
Make use of C2 pointers : NO
Read offset correction : 667
Max retry count : 100
Gap status : Analyzed, Appended (except HTOA)

TOC of the extracted CD
Track | Start | Length | Start sector | End sector
———————————————————
1 | 00:00:00 | 03:19:00 | 0 | 14924
2 | 03:19:00 | 04:01:42 | 14925 | 33041
3 | 07:20:42 | 03:42:34 | 33042 | 49725
4 | 11:03:01 | 03:09:06 | 49726 | 63906
5 | 14:12:07 | 03:04:57 | 63907 | 77763
6 | 17:16:64 | 03:42:28 | 77764 | 94441
7 | 20:59:17 | 03:27:02 | 94442 | 109968
8 | 24:26:19 | 04:05:36 | 109969 | 128379
9 | 28:31:55 | 03:34:50 | 128380 | 144479
10 | 32:06:30 | 04:13:06 | 144480 | 163460
11 | 36:19:36 | 04:02:21 | 163461 | 181631
12 | 40:21:57 | 04:02:42 | 181632 | 199823
13 | 44:24:24 | 04:02:32 | 199824 | 218005

AccurateRip Summary (DiscID: 00169386-00e316d5-a50b5a0d)
Track 01 : OK (v1+v2, confidence 201/201)
Track 02 : OK (v1+v2, confidence 203/203)
Track 03 : OK (v1+v2, confidence 202/202)
Track 04 : OK (v1+v2, confidence 200/200)
Track 05 : OK (v1+v2, confidence 199/199)
Track 06 : OK (v1+v2, confidence 201/201)
Track 07 : OK (v1+v2, confidence 201/201)
Track 08 : OK (v1+v2, confidence 204/204)
Track 09 : OK (v1+v2, confidence 197/197)
Track 10 : OK (v1+v2, confidence 200/200)
Track 11 : OK (v1+v2, confidence 199/199)
Track 12 : OK (v1+v2, confidence 198/198)
Track 13 : OK (v1+v2, confidence 199/199)
->All tracks accurately ripped.

All Tracks
Album gain : -11.41 dB
Peak : 0.999969
Statistics
Read error : 0
Jitter error (maybe fixed) : 0
Retry sector count : 0
Damaged sector count : 0

Track 01
Filename : /Volumes/Hollywood and Vine/Rips/Rise Against – Appeal to Reason (2008) [FLAC]/01 Collapse (Post‐Amerika).flac
Pre-gap length : 00:02:00

Track gain : -12.19 dB
Peak : 0.999969
CRC32 hash (test run) : 7ECD616D
CRC32 hash : 7ECD616D
CRC32 hash (skip zero) : 3EE20381
AccurateRip v1 signature : C6E805FD
AccurateRip v2 signature : 0233A12A
->Accurately ripped (v1+v2, confidence 91+110/201)
Statistics
Read error : 0
Jitter error (maybe fixed) : 0
Retry sector count : 0
Damaged sector count : 0

Track 02
Filename : /Volumes/Hollywood and Vine/Rips/Rise Against – Appeal to Reason (2008) [FLAC]/02 Long Forgotten Sons.flac

Track gain : -11.45 dB
Peak : 0.999969
CRC32 hash (test run) : 1349C4E7
CRC32 hash : 1349C4E7
CRC32 hash (skip zero) : B009570C
AccurateRip v1 signature : 3C03F8AE
AccurateRip v2 signature : 247063F6
->Accurately ripped (v1+v2, confidence 90+113/203)
Statistics
Read error : 0
Jitter error (maybe fixed) : 0
Retry sector count : 0
Damaged sector count : 0

Track 03
Filename : /Volumes/Hollywood and Vine/Rips/Rise Against – Appeal to Reason (2008) [FLAC]/03 Re‐Education (Through Labor).flac

Track gain : -11.83 dB
Peak : 0.999969
CRC32 hash (test run) : FEFECFB8
CRC32 hash : FEFECFB8
CRC32 hash (skip zero) : 6C558263
AccurateRip v1 signature : 1A90FE33
AccurateRip v2 signature : 34455164
->Accurately ripped (v1+v2, confidence 90+112/202)
Statistics
Read error : 0
Jitter error (maybe fixed) : 0
Retry sector count : 0
Damaged sector count : 0

Track 04
Filename : /Volumes/Hollywood and Vine/Rips/Rise Against – Appeal to Reason (2008) [FLAC]/04 The Dirt Whispered.flac

Track gain : -11.06 dB
Peak : 0.999969
CRC32 hash (test run) : B676B882
CRC32 hash : B676B882
CRC32 hash (skip zero) : EFB38A25
AccurateRip v1 signature : 0AD80EAC
AccurateRip v2 signature : F0E2719A
->Accurately ripped (v1+v2, confidence 90+110/200)
Statistics
Read error : 0
Jitter error (maybe fixed) : 0
Retry sector count : 0
Damaged sector count : 0

Track 05
Filename : /Volumes/Hollywood and Vine/Rips/Rise Against – Appeal to Reason (2008) [FLAC]/05 Kotov Syndrome.flac

Track gain : -12.26 dB
Peak : 0.999969
CRC32 hash (test run) : 7323B06E
CRC32 hash : 7323B06E
CRC32 hash (skip zero) : 13FB6E6E
AccurateRip v1 signature : 7CBDBF3B
AccurateRip v2 signature : 5EC301DA
->Accurately ripped (v1+v2, confidence 90+109/199)
Statistics
Read error : 0
Jitter error (maybe fixed) : 0
Retry sector count : 0
Damaged sector count : 0

Track 06
Filename : /Volumes/Hollywood and Vine/Rips/Rise Against – Appeal to Reason (2008) [FLAC]/06 From Heads Unworthy.flac

Track gain : -11.48 dB
Peak : 0.999969
CRC32 hash (test run) : 1BAAE503
CRC32 hash : 1BAAE503
CRC32 hash (skip zero) : AD9FB0F4
AccurateRip v1 signature : 6FC8103B
AccurateRip v2 signature : 2710383D
->Accurately ripped (v1+v2, confidence 90+111/201)
Statistics
Read error : 0
Jitter error (maybe fixed) : 0
Retry sector count : 0
Damaged sector count : 0

Track 07
Filename : /Volumes/Hollywood and Vine/Rips/Rise Against – Appeal to Reason (2008) [FLAC]/07 The Strength to Go On.flac

Track gain : -11.43 dB
Peak : 0.999969
CRC32 hash (test run) : C4563197
CRC32 hash : C4563197
CRC32 hash (skip zero) : E6738AD8
AccurateRip v1 signature : 1E853559
AccurateRip v2 signature : 545715A1
->Accurately ripped (v1+v2, confidence 90+111/201)
Statistics
Read error : 0
Jitter error (maybe fixed) : 0
Retry sector count : 0
Damaged sector count : 0

Track 08
Filename : /Volumes/Hollywood and Vine/Rips/Rise Against – Appeal to Reason (2008) [FLAC]/08 Audience of One.flac

Track gain : -11.31 dB
Peak : 0.999969
CRC32 hash (test run) : 3404D2E9
CRC32 hash : 3404D2E9
CRC32 hash (skip zero) : BF8CFCFC
AccurateRip v1 signature : DA4BFF07
AccurateRip v2 signature : C14B257B
->Accurately ripped (v1+v2, confidence 90+114/204)
Statistics
Read error : 0
Jitter error (maybe fixed) : 0
Retry sector count : 0
Damaged sector count : 0

Track 09
Filename : /Volumes/Hollywood and Vine/Rips/Rise Against – Appeal to Reason (2008) [FLAC]/09 Entertainment.flac

Track gain : -12.31 dB
Peak : 0.999969
CRC32 hash (test run) : 79F477DC
CRC32 hash : 79F477DC
CRC32 hash (skip zero) : A362DE22
AccurateRip v1 signature : 38ED4E85
AccurateRip v2 signature : 10AB14AB
->Accurately ripped (v1+v2, confidence 88+109/197)
Statistics
Read error : 0
Jitter error (maybe fixed) : 0
Retry sector count : 0
Damaged sector count : 0

Track 10
Filename : /Volumes/Hollywood and Vine/Rips/Rise Against – Appeal to Reason (2008) [FLAC]/10 Hero of War.flac

Track gain : -6.95 dB
Peak : 0.999969
CRC32 hash (test run) : DE525919
CRC32 hash : DE525919
CRC32 hash (skip zero) : FCF2AEDA
AccurateRip v1 signature : 1FBC9EB3
AccurateRip v2 signature : 2611F8EA
->Accurately ripped (v1+v2, confidence 90+110/200)
Statistics
Read error : 0
Jitter error (maybe fixed) : 0
Retry sector count : 0
Damaged sector count : 0

Track 11
Filename : /Volumes/Hollywood and Vine/Rips/Rise Against – Appeal to Reason (2008) [FLAC]/11 Savior.flac

Track gain : -10.98 dB
Peak : 0.999969
CRC32 hash (test run) : D6541B98
CRC32 hash : D6541B98
CRC32 hash (skip zero) : 1AC1599E
AccurateRip v1 signature : 8373E465
AccurateRip v2 signature : 98EA2450
->Accurately ripped (v1+v2, confidence 89+110/199)
Statistics
Read error : 0
Jitter error (maybe fixed) : 0
Retry sector count : 0
Damaged sector count : 0

Track 12
Filename : /Volumes/Hollywood and Vine/Rips/Rise Against – Appeal to Reason (2008) [FLAC]/12 Hairline Fracture.flac

Track gain : -11.35 dB
Peak : 0.999969
CRC32 hash (test run) : 4BCB3AF7
CRC32 hash : 4BCB3AF7
CRC32 hash (skip zero) : AEC62C45
AccurateRip v1 signature : 5136352A
AccurateRip v2 signature : 852C3498
->Accurately ripped (v1+v2, confidence 88+110/198)
Statistics
Read error : 0
Jitter error (maybe fixed) : 0
Retry sector count : 0
Damaged sector count : 0

Track 13
Filename : /Volumes/Hollywood and Vine/Rips/Rise Against – Appeal to Reason (2008) [FLAC]/13 Whereabouts Unknown.flac

Track gain : -11.94 dB
Peak : 0.999969
CRC32 hash (test run) : 7FC8128D
CRC32 hash : 7FC8128D
CRC32 hash (skip zero) : C26B94BC
AccurateRip v1 signature : 0815DE2B
AccurateRip v2 signature : 2C5512D6
->Accurately ripped (v1+v2, confidence 90+109/199)
Statistics
Read error : 0
Jitter error (maybe fixed) : 0
Retry sector count : 0
Damaged sector count : 0

No errors occurred

End of status report

—–BEGIN XLD SIGNATURE—–
nO6nktmAiQR0D7frvD8K17WsnXCWQnC0eE0HNhWJq6jXO5kfbY7Tyae113OIhIS12WRnVi00ItWWp0GfCBZeCUMJ4PEr7rw1vWdA6q4
—–END XLD SIGNATURE—–

TITLE “Appeal to Reason”
PERFORMER “Rise Against”
REM DATE 2008
REM DISCID A50B5A0D
REM REPLAYGAIN_ALBUM_GAIN -11.41 dB
REM REPLAYGAIN_ALBUM_PEAK 0.999969
REM DISCNUMBER 1
REM TOTALDISCS 1
FILE “01 Collapse (Post-Amerika).flac” WAVE
TRACK 01 AUDIO
TITLE “Collapse (Post‐Amerika)”
PERFORMER “Rise Against”
REM REPLAYGAIN_TRACK_GAIN -12.19 dB
REM REPLAYGAIN_TRACK_PEAK 0.999969
INDEX 01 00:00:00
FILE “02 Long Forgotten Sons.flac” WAVE
TRACK 02 AUDIO
TITLE “Long Forgotten Sons”
PERFORMER “Rise Against”
REM REPLAYGAIN_TRACK_GAIN -11.45 dB
REM REPLAYGAIN_TRACK_PEAK 0.999969
INDEX 01 00:00:00
FILE “03 Re-Education (Through Labor).flac” WAVE
TRACK 03 AUDIO
TITLE “Re‐Education (Through Labor)”
PERFORMER “Rise Against”
REM REPLAYGAIN_TRACK_GAIN -11.83 dB
REM REPLAYGAIN_TRACK_PEAK 0.999969
INDEX 01 00:00:00
FILE “04 The Dirt Whispered.flac” WAVE
TRACK 04 AUDIO
TITLE “The Dirt Whispered”
PERFORMER “Rise Against”
REM REPLAYGAIN_TRACK_GAIN -11.06 dB
REM REPLAYGAIN_TRACK_PEAK 0.999969
INDEX 01 00:00:00
FILE “05 Kotov Syndrome.flac” WAVE
TRACK 05 AUDIO
TITLE “Kotov Syndrome”
PERFORMER “Rise Against”
REM REPLAYGAIN_TRACK_GAIN -12.26 dB
REM REPLAYGAIN_TRACK_PEAK 0.999969
INDEX 01 00:00:00
FILE “06 From Heads Unworthy.flac” WAVE
TRACK 06 AUDIO
TITLE “From Heads Unworthy”
PERFORMER “Rise Against”
REM REPLAYGAIN_TRACK_GAIN -11.48 dB
REM REPLAYGAIN_TRACK_PEAK 0.999969
INDEX 01 00:00:00
FILE “07 The Strength to Go On.flac” WAVE
TRACK 07 AUDIO
TITLE “The Strength to Go On”
PERFORMER “Rise Against”
REM REPLAYGAIN_TRACK_GAIN -11.43 dB
REM REPLAYGAIN_TRACK_PEAK 0.999969
INDEX 01 00:00:00
FILE “08 Audience of One.flac” WAVE
TRACK 08 AUDIO
TITLE “Audience of One”
PERFORMER “Rise Against”
REM REPLAYGAIN_TRACK_GAIN -11.31 dB
REM REPLAYGAIN_TRACK_PEAK 0.999969
INDEX 01 00:00:00
FILE “09 Entertainment.flac” WAVE
TRACK 09 AUDIO
TITLE “Entertainment”
PERFORMER “Rise Against”
REM REPLAYGAIN_TRACK_GAIN -12.31 dB
REM REPLAYGAIN_TRACK_PEAK 0.999969
INDEX 01 00:00:00
FILE “10 Hero of War.flac” WAVE
TRACK 10 AUDIO
TITLE “Hero of War”
PERFORMER “Rise Against”
REM REPLAYGAIN_TRACK_GAIN -6.95 dB
REM REPLAYGAIN_TRACK_PEAK 0.999969
INDEX 01 00:00:00
FILE “11 Savior.flac” WAVE
TRACK 11 AUDIO
TITLE “Savior”
PERFORMER “Rise Against”
REM REPLAYGAIN_TRACK_GAIN -10.98 dB
REM REPLAYGAIN_TRACK_PEAK 0.999969
INDEX 01 00:00:00
FILE “12 Hairline Fracture.flac” WAVE
TRACK 12 AUDIO
TITLE “Hairline Fracture”
PERFORMER “Rise Against”
REM REPLAYGAIN_TRACK_GAIN -11.35 dB
REM REPLAYGAIN_TRACK_PEAK 0.999969
INDEX 01 00:00:00
FILE “13 Whereabouts Unknown.flac” WAVE
TRACK 13 AUDIO
TITLE “Whereabouts Unknown”
PERFORMER “Rise Against”
REM REPLAYGAIN_TRACK_GAIN -11.94 dB
REM REPLAYGAIN_TRACK_PEAK 0.999969
INDEX 01 00:00:00


Leave a Reply

Your email address will not be published. Required fields are marked *

Enter the text from the image below
 

This site uses Akismet to reduce spam. Learn how your comment data is processed.