Ringo Starr – Y Not




No Cover available

Artist: Ringo Starr
Year: 2010
Genre: Rock
Notes: Discogs
Add. Notes:
Watch Songs on: YouTube
Cover incl.: Yes
Encoder: FLAC
Bitrate: ~1000 kBit/s (44.1 kHz/16 Bit/s)
Log & Cue incl.: Yes/Yes
Size: 275,8 MB
Password: “slam” (without ” “)


All Downloads/Hosters are compatible

Download 1
KatFile.com
Turbobit.net
Rapidgator.net
FileFactory.com
Download 2
KatFile.com
Turbobit.net
Rapidgator.net
FileFactory.com

Tracklist:

1 Fill In The Blanks 3:14
2 Peace Dream 3:35
3 The Other Side Of Liverpool 3:24
4 Walk With You 4:42
5 Time 3:50
6 Everyone Wins 3:54
7 Mystery Of The Night 4:06
8 Can't Do It Wrong 3:45
9 Y Not 3:50
10 Who's Your Daddy 2:29

EAC-Log, CUE-Sheed & NFO:

Click to open spoiler
Exact Audio Copy V0.99 prebeta 5 from 4. May 2009

Отчёт EAC об извлечении, выполненном 25. января 2015, 20:08

Ringo Starr / Y Not

Дисковод: SONY BD RW BDX-S500U Adapter: 1 ID: 0

Режим чтения : Достоверность
Использование точного потока : Да
Отключение кэша аудио : Да
Использование указателей C2 : Нет

Коррекция смещения при чтении : 48
Способность читать области Lead-in и Lead-out : Нет
Заполнение пропущенных сэмплов тишиной : Да
Удаление блоков с тишиной в начале и конце : Нет
При вычислениях CRC использовались нулевые сэмплы : Да
Интерфейс : Встроенный Win32-интерфейс для Win NT/2000

Выходной формат : Внутренние WAV-операции
Формат сэмплов : 44.100 Гц; 16 бит; стерео

TOC извлечённого CD

Трек | Старт | Длительность | Начальный сектор | Конечный сектор
———————————————————————
1 | 0:00.00 | 3:14.29 | 0 | 14578
2 | 3:14.29 | 3:34.70 | 14579 | 30698
3 | 6:49.24 | 3:23.46 | 30699 | 45969
4 | 10:12.70 | 4:42.35 | 45970 | 67154
5 | 14:55.30 | 3:49.44 | 67155 | 84373
6 | 18:44.74 | 3:54.36 | 84374 | 101959
7 | 22:39.35 | 4:05.45 | 101960 | 120379
8 | 26:45.05 | 3:45.06 | 120380 | 137260
9 | 30:30.11 | 3:49.55 | 137261 | 154490
10 | 34:19.66 | 2:29.16 | 154491 | 165681

Характеристики диапазона извлечения и сообщения об ошибках

Выбранный диапазон

Имя файла F:\Ringo_CDs\Y Not\Ringo Starr – Y Not.wav

Пиковый уровень 98.9 %
Качество диапазона 100.0 %
CRC теста 401A6BB5
CRC копии 401A6BB5
Копирование… OK

Ошибок не произошло

AccurateRip: сводка

Трек 1 точное извлечение (доверие 40) [24F421D6]
Трек 2 точное извлечение (доверие 41) [6E35AFE5]
Трек 3 точное извлечение (доверие 42) [0F1D80B9]
Трек 4 точное извлечение (доверие 42) [93257123]
Трек 5 точное извлечение (доверие 41) [FFB17ADD]
Трек 6 точное извлечение (доверие 42) [284D6485]
Трек 7 точное извлечение (доверие 42) [3165A40D]
Трек 8 точное извлечение (доверие 42) [27ADD9C0]
Трек 9 точное извлечение (доверие 41) [CB68F1B8]
Трек 10 точное извлечение (доверие 41) [A9118A68]

Все треки извлечены точно

Конец отчёта

REM GENRE Rock
REM DATE 2010
REM DISCID 7508A10A
REM COMMENT “ExactAudioCopy v0.99pb5”
PERFORMER “Ringo Starr”
TITLE “Y Not”
FILE “Ringo Starr – Y Not.flac” WAVE
TRACK 01 AUDIO
TITLE “Fill In The Blanks”
PERFORMER “Ringo Starr”
INDEX 01 00:00:00
TRACK 02 AUDIO
TITLE “Peace Dream”
PERFORMER “Ringo Starr”
INDEX 00 03:13:33
INDEX 01 03:14:29
TRACK 03 AUDIO
TITLE “The Other Side Of Liverpool”
PERFORMER “Ringo Starr”
INDEX 00 06:49:11
INDEX 01 06:49:24
TRACK 04 AUDIO
TITLE “Walk With You”
PERFORMER “Ringo Starr”
INDEX 00 10:12:15
INDEX 01 10:12:70
TRACK 05 AUDIO
TITLE “Time”
PERFORMER “Ringo Starr”
INDEX 00 14:54:19
INDEX 01 14:55:30
TRACK 06 AUDIO
TITLE “Everyone Wins”
PERFORMER “Ringo Starr”
INDEX 00 18:43:39
INDEX 01 18:44:74
TRACK 07 AUDIO
TITLE “Mystery Of The Night”
PERFORMER “Ringo Starr”
INDEX 00 22:38:63
INDEX 01 22:39:35
TRACK 08 AUDIO
TITLE “Can’t Do It Wrong”
PERFORMER “Ringo Starr”
INDEX 00 26:44:22
INDEX 01 26:45:05
TRACK 09 AUDIO
TITLE “Y Not”
PERFORMER “Ringo Starr”
INDEX 00 30:29:00
INDEX 01 30:30:11
TRACK 10 AUDIO
TITLE “Who’s Your Daddy”
PERFORMER “Ringo Starr”
INDEX 00 34:19:20
INDEX 01 34:19:66


Leave a Reply

Your email address will not be published. Required fields are marked *

Enter the text from the image below
 

This site uses Akismet to reduce spam. Learn how your comment data is processed.