Ringo Starr – Vertical Man




Artist: Ringo Starr
Year: 1998
Genre: Rock
Notes: Discogs
Add. Notes:
Cover incl.: Yes
Encoder: FLAC
Bitrate: ~1000 kBit/s (44.1 kHz/16 Bit/s)
Log & Cue incl.: Yes
Size: 414 MB
Password: “slam” (without ” “)


All Downloads/Hosters are compatible

Download 1
KatFile.com
Turbobit.net
FileFactory.com
Rapidgator.net
Download 2
KatFile.com
Turbobit.net
FileFactory.com
Rapidgator.net

Tracklist:

1 - One - 3:02
2 - What In The...World - 3:29
3 - Mindfield - 4:07
4 - King Of Broken Hearts - 4:44
5 - Love Me Do - 3:45
6 - Vertical Man - 4:42
7 - Drift Away - 4:10
8 - I Was Walkin' - 3:21
9 - La De Da - 5:41
10 - Without Understanding - 4:22
11 - I'll Be Fine Anywhere - 3:41
12 - Puppet - 3:21
13 - I'm Yours - 3:23

EAC-Log, CUE-Sheed & NFO:

Click to open spoiler
Exact Audio Copy V0.99 prebeta 5 from 4. May 2009

Отчёт EAC об извлечении, выполненном 24. января 2015, 21:21

Ringo Starr / Vertical Man

Дисковод: SONY BD RW BDX-S500U Adapter: 1 ID: 0

Режим чтения : Достоверность
Использование точного потока : Да
Отключение кэша аудио : Да
Использование указателей C2 : Нет

Коррекция смещения при чтении : 48
Способность читать области Lead-in и Lead-out : Нет
Заполнение пропущенных сэмплов тишиной : Да
Удаление блоков с тишиной в начале и конце : Нет
При вычислениях CRC использовались нулевые сэмплы : Да
Интерфейс : Встроенный Win32-интерфейс для Win NT/2000

Выходной формат : Внутренние WAV-операции
Формат сэмплов : 44.100 Гц; 16 бит; стерео

TOC извлечённого CD

Трек | Старт | Длительность | Начальный сектор | Конечный сектор
———————————————————————
1 | 0:00.00 | 3:02.12 | 0 | 13661
2 | 3:02.12 | 3:28.65 | 13662 | 29326
3 | 6:31.02 | 4:06.50 | 29327 | 47826
4 | 10:37.52 | 4:43.53 | 47827 | 69104
5 | 15:21.30 | 3:44.42 | 69105 | 85946
6 | 19:05.72 | 4:42.18 | 85947 | 107114
7 | 23:48.15 | 4:09.67 | 107115 | 125856
8 | 27:58.07 | 3:21.25 | 125857 | 140956
9 | 31:19.32 | 5:41.23 | 140957 | 166554
10 | 37:00.55 | 4:22.10 | 166555 | 186214
11 | 41:22.65 | 3:41.20 | 186215 | 202809
12 | 45:04.10 | 3:21.12 | 202810 | 217896
13 | 48:25.22 | 3:23.05 | 217897 | 233126

Характеристики диапазона извлечения и сообщения об ошибках

Выбранный диапазон

Имя файла F:\Ringo_CDs\Vertical Man\Ringo Starr – Vertical Man.wav

Пиковый уровень 99.8 %
Качество диапазона 100.0 %
CRC теста 7031EC36
CRC копии 7031EC36
Копирование… OK

Ошибок не произошло

AccurateRip: сводка

Трек 1 точное извлечение (доверие 20) [6A912FD5]
Трек 2 точное извлечение (доверие 20) [19CD21B4]
Трек 3 точное извлечение (доверие 21) [83407770]
Трек 4 точное извлечение (доверие 21) [831DA81B]
Трек 5 точное извлечение (доверие 21) [D1292F26]
Трек 6 точное извлечение (доверие 21) [B0696569]
Трек 7 точное извлечение (доверие 22) [F79C2156]
Трек 8 точное извлечение (доверие 22) [59260004]
Трек 9 точное извлечение (доверие 22) [B9F9C014]
Трек 10 точное извлечение (доверие 22) [AFE433F9]
Трек 11 точное извлечение (доверие 22) [FD55B810]
Трек 12 точное извлечение (доверие 22) [F2DD729B]
Трек 13 точное извлечение (доверие 22) [06347ECD]

Все треки извлечены точно

Конец отчёта

REM GENRE Rock
REM DATE 1998
REM DISCID AF0C240D
REM COMMENT “ExactAudioCopy v0.99pb5”
PERFORMER “Ringo Starr”
TITLE “Vertical Man”
FILE “Ringo Starr – Vertical Man.flac” WAVE
TRACK 01 AUDIO
TITLE “One”
PERFORMER “Ringo Starr”
INDEX 01 00:00:00
TRACK 02 AUDIO
TITLE “What in the … World”
PERFORMER “Ringo Starr”
INDEX 01 03:02:12
TRACK 03 AUDIO
TITLE “Mindfield”
PERFORMER “Ringo Starr”
INDEX 01 06:31:02
TRACK 04 AUDIO
TITLE “King of Broken Hearts”
PERFORMER “Ringo Starr”
INDEX 00 10:36:17
INDEX 01 10:37:52
TRACK 05 AUDIO
TITLE “Love Me Do”
PERFORMER “Ringo Starr”
INDEX 01 15:21:30
TRACK 06 AUDIO
TITLE “Vertical Man”
PERFORMER “Ringo Starr”
INDEX 01 19:05:72
TRACK 07 AUDIO
TITLE “Drift Away”
PERFORMER “Ringo Starr”
INDEX 01 23:48:15
TRACK 08 AUDIO
TITLE “I Was Walkin'”
PERFORMER “Ringo Starr”
INDEX 00 27:56:57
INDEX 01 27:58:07
TRACK 09 AUDIO
TITLE “La De Da”
PERFORMER “Ringo Starr”
INDEX 00 31:17:15
INDEX 01 31:19:32
TRACK 10 AUDIO
TITLE “Without Understanding”
PERFORMER “Ringo Starr”
INDEX 01 37:00:55
TRACK 11 AUDIO
TITLE “I’ll Be Fine Anywhere”
PERFORMER “Ringo Starr”
INDEX 01 41:22:65
TRACK 12 AUDIO
TITLE “Puppet”
PERFORMER “Ringo Starr”
INDEX 00 45:01:60
INDEX 01 45:04:10
TRACK 13 AUDIO
TITLE “I’m Yours”
PERFORMER “Ringo Starr”
INDEX 00 48:23:30
INDEX 01 48:25:22


Leave a Reply

Your email address will not be published. Required fields are marked *

This site uses Akismet to reduce spam. Learn how your comment data is processed.