Ringo Starr – Starr Struck: Best Of Ringo Starr, Vol. 2




No Cover available

Artist: Ringo Starr
Year: 1989
Genre: Rock
Notes: Discogs
Add. Notes:
Watch Songs on: YouTube
Cover incl.: Yes
Encoder: FLAC
Bitrate: ~900 kBit/s (44.1 kHz/16 Bit/s)
Log & Cue incl.: Yes/Yes
Size: 369,1 MB
Password: “slam” (without ” “)


All Downloads/Hosters are compatible

Download 1
KatFile.com
Turbobit.net
FileFactory.com
Rapidgator.net
Download 2
KatFile.com
Turbobit.net
FileFactory.com
Rapidgator.net

Tracklist:

1 Wrack My Brain 2:20
2 In My Car 3:13
3 Cookin' (In The Kitchen Of Love) 3:37
4 I Keep Forgettin' 4:18
5 Hard Times 3:31
6 Hey Baby 3:10
7 Attention 3:18
8 A Dose Of Rock 'N' Roll 3:24
9 Who Needs A Heart 3:48
10 Private Property 2:44
11 Can She Do It Like She Dances 3:12
12 Heart On My Sleeve 3:20
13 Sure To Fall (In Love With You) 3:41
14 Hopeless 3:17
15 You Belong To Me 2:11
16 She's About A Mover 3:52

EAC-Log, CUE-Sheed & NFO:

Click to open spoiler
Exact Audio Copy V1.0 beta 4 from 7. December 2014

Отчёт EAC об извлечении, выполненном 15. марта 2015, 15:04

Ringo Starr / Starr Struck: Best of Ringo Starr, Volume 2

Дисковод: ASUS DRW-24F1ST a Adapter: 1 ID: 0

Режим чтения : Достоверность
Использование точного потока : Да
Отключение кэша аудио : Да
Использование указателей C2 : Нет

Коррекция смещения при чтении : 6
Способность читать области Lead-in и Lead-out : Нет
Заполнение пропущенных сэмплов тишиной : Да
Удаление блоков с тишиной в начале и конце : Нет
При вычислениях CRC использовались нулевые сэмплы : Да
Интерфейс : Встроенный Win32-интерфейс для Win NT/2000

Выходной формат : Пользовательский кодировщик
Выбранный битрейт : 128 kBit/s
Качество : Высокий
Добавление ID3-тега : Нет
Утилита сжатия : C:\Program Files\Exact Audio Copy\Flac\flac.exe
Дополнительные параметры : -V -8 -T “Date=%year%” -T “Genre=%genre%” %source%

TOC извлечённого CD

Трек | Старт | Длительность | Начальный сектор | Конечный сектор
———————————————————————
1 | 0:00.00 | 2:22.25 | 0 | 10674
2 | 2:22.25 | 3:16.58 | 10675 | 25432
3 | 5:39.08 | 3:41.55 | 25433 | 42062
4 | 9:20.63 | 4:22.57 | 42063 | 61769
5 | 13:43.45 | 3:32.60 | 61770 | 77729
6 | 17:16.30 | 3:13.20 | 77730 | 92224
7 | 20:29.50 | 3:22.38 | 92225 | 107412
8 | 23:52.13 | 3:27.17 | 107413 | 122954
9 | 27:19.30 | 3:49.65 | 122955 | 140194
10 | 31:09.20 | 2:43.00 | 140195 | 152419
11 | 33:52.20 | 3:13.08 | 152420 | 166902
12 | 37:05.28 | 3:23.02 | 166903 | 182129
13 | 40:28.30 | 3:45.10 | 182130 | 199014
14 | 44:13.40 | 3:20.53 | 199015 | 214067
15 | 47:34.18 | 2:10.32 | 214068 | 223849
16 | 49:44.50 | 3:54.10 | 223850 | 241409

Характеристики диапазона извлечения и сообщения об ошибках

Выбранный диапазон

Имя файла C:\Users\Erik\Desktop\sutit\Starr Struck- Best of Ringo Starr, Vol. 2.wav

Пиковый уровень 100.0 %
Скорость извлечения 6.8 X
Качество диапазона 100.0 %
CRC теста ED74B52A
CRC копии ED74B52A
Копирование… OK

Ошибок не произошло

AccurateRip: сводка

Трек 1 точность не определена (достоверность 8) [CECD1AFF], AccurateRip вернул [E46F69E0] (AR v2)
Трек 2 точность не определена (достоверность 7) [B6A9F83F], AccurateRip вернул [DCD2507C] (AR v2)
Трек 3 точность не определена (достоверность 8) [0897856A], AccurateRip вернул [C04D08CD] (AR v2)
Трек 4 точность не определена (достоверность 8) [4B53C703], AccurateRip вернул [900E2F57] (AR v2)
Трек 5 точность не определена (достоверность 8) [85D38B3B], AccurateRip вернул [CD2B9F87] (AR v2)
Трек 6 точность не определена (достоверность 8) [8D8DBF63], AccurateRip вернул [6FF75B32] (AR v2)
Трек 7 точность не определена (достоверность 9) [F2D57309], AccurateRip вернул [316A12E3] (AR v2)
Трек 8 точность не определена (достоверность 8) [C66F3494], AccurateRip вернул [2FA80463] (AR v2)
Трек 9 точность не определена (достоверность 7) [0C3D12F7], AccurateRip вернул [731457AA] (AR v2)
Трек 10 точность не определена (достоверность 8) [26F9B7D6], AccurateRip вернул [E4E1B9EA] (AR v2)
Трек 11 точность не определена (достоверность 8) [03E688DE], AccurateRip вернул [A0CD184E] (AR v2)
Трек 12 точность не определена (достоверность 8) [143CECA4], AccurateRip вернул [AEDB00CA] (AR v2)
Трек 13 точность не определена (достоверность 8) [6D5B5D6A], AccurateRip вернул [ECDE61AB] (AR v2)
Трек 14 точность не определена (достоверность 8) [313D1636], AccurateRip вернул [7F7DB091] (AR v2)
Трек 15 точность не определена (достоверность 8) [19532324], AccurateRip вернул [85A64135] (AR v2)
Трек 16 точность не определена (достоверность 7) [B211DAF5], AccurateRip вернул [07C36A4D] (AR v2)

Ни один трек не прошёл проверки на точность
В вашей базе может быть иной вариант штамповки диска

Конец отчёта

—- CUETools DB Plugin V2.1.4

[CTDB TOCID: INw7CH3bBKSopOgmcIQ0Gidn_Ic-] found
Submit result: already submitted
Track | CTDB Status
1 | (4/4) Accurately ripped
2 | (4/4) Accurately ripped
3 | (4/4) Accurately ripped
4 | (4/4) Accurately ripped
5 | (4/4) Accurately ripped
6 | (4/4) Accurately ripped
7 | (4/4) Accurately ripped
8 | (4/4) Accurately ripped
9 | (4/4) Accurately ripped
10 | (4/4) Accurately ripped
11 | (4/4) Accurately ripped
12 | (4/4) Accurately ripped
13 | (4/4) Accurately ripped
14 | (4/4) Accurately ripped
15 | (4/4) Accurately ripped
16 | (4/4) Accurately ripped

REM GENRE “Classic Rock”
REM DATE 1989
REM DISCID CA0C9210
REM COMMENT “ExactAudioCopy v1.0b4”
PERFORMER “Ringo Starr”
TITLE “Starr Struck: Best of Ringo Starr, Volume 2”
FILE “Starr Struck- Best of Ringo Starr, Vol. 2.flac” WAVE
TRACK 01 AUDIO
TITLE “Wrack My Brain”
PERFORMER “Ringo Starr”
INDEX 01 00:00:00
TRACK 02 AUDIO
TITLE “In My Car”
PERFORMER “Ringo Starr”
INDEX 00 02:21:25
INDEX 01 02:22:25
TRACK 03 AUDIO
TITLE “Cookin’ (In the Kitchen of Love)”
PERFORMER “Ringo Starr”
INDEX 00 05:36:53
INDEX 01 05:39:08
TRACK 04 AUDIO
TITLE “I Keep Forgettin'”
PERFORMER “Ringo Starr”
INDEX 00 09:20:38
INDEX 01 09:20:63
TRACK 05 AUDIO
TITLE “Hard Times”
PERFORMER “Ringo Starr”
INDEX 00 13:41:28
INDEX 01 13:43:45
TRACK 06 AUDIO
TITLE “Hey Baby”
PERFORMER “Ringo Starr”
INDEX 00 17:16:08
INDEX 01 17:16:30
TRACK 07 AUDIO
TITLE “Attention”
PERFORMER “Ringo Starr”
INDEX 00 20:28:10
INDEX 01 20:29:50
TRACK 08 AUDIO
TITLE “A Dose of Rock ‘n’ Roll”
PERFORMER “Ringo Starr”
INDEX 00 23:50:23
INDEX 01 23:52:13
TRACK 09 AUDIO
TITLE “Who Needs a Heart”
PERFORMER “Ringo Starr”
INDEX 00 27:16:50
INDEX 01 27:19:30
TRACK 10 AUDIO
TITLE “Private Property”
PERFORMER “Ringo Starr”
INDEX 00 31:08:30
INDEX 01 31:09:20
TRACK 11 AUDIO
TITLE “Can She Do It Like She Dances”
PERFORMER “Ringo Starr”
INDEX 01 33:52:20
TRACK 12 AUDIO
TITLE “Heart on My Sleeve”
PERFORMER “Ringo Starr”
INDEX 00 37:05:00
INDEX 01 37:05:28
TRACK 13 AUDIO
TITLE “Sure to Fall (In Love With You)”
PERFORMER “Ringo Starr”
INDEX 00 40:27:05
INDEX 01 40:28:30
TRACK 14 AUDIO
TITLE “Hopeless”
PERFORMER “Ringo Starr”
INDEX 00 44:12:28
INDEX 01 44:13:40
TRACK 15 AUDIO
TITLE “You Belong to Me”
PERFORMER “Ringo Starr”
INDEX 00 47:32:25
INDEX 01 47:34:18
TRACK 16 AUDIO
TITLE “She’s About a Mover”
PERFORMER “Ringo Starr”
INDEX 00 49:44:08
INDEX 01 49:44:50


Leave a Reply

Your email address will not be published. Required fields are marked *

Enter the text from the image below
 

This site uses Akismet to reduce spam. Learn how your comment data is processed.