Ringo Starr – Sentimental Journey




No Cover available

Artist: Ringo Starr
Year: 1970/1995
Genre: Rock
Notes: Discogs
Add. Notes:
Watch Songs on: YouTube
Cover incl.: Yes
Encoder: FLAC
Bitrate: ~800 kBit/s (44.1 kHz/16 Bit/s)
Log & Cue incl.: Yes/Yes
Size: 210,3 MB
Password: “slam” (without ” “)


All Downloads/Hosters are compatible

Download 1
KatFile.com
Turbobit.net
Rapidgator.net
FileFactory.com
Download 2
KatFile.com
Turbobit.net
Rapidgator.net
FileFactory.com

Tracklist:

1 Sentimental Journey 3:27
2 Night And Day 2:24
3 Whispering Grass (Don't Tell The Trees) 2:35
4 Bye Bye Blackbird 2:11
5 I'm A Fool To Care 2:39
6 Star Dust 3:17
7 Blue, Turning Grey Over You 3:19
8 Love Is A Many Splendoured Thing 3:06
9 Dream 2:41
10 You Always Hurt The One You Love 2:19
11 Have I Told You Lately That I Love You 2:43
12 Let The Rest Of The World Go By 2:54

EAC-Log, CUE-Sheed & NFO:

Click to open spoiler
Exact Audio Copy V0.99 prebeta 5 from 4. May 2009

Отчёт EAC об извлечении, выполненном 25. января 2015, 20:16

Ringo Starr / Sentimental Journey

Дисковод: SONY BD RW BDX-S500U Adapter: 1 ID: 0

Режим чтения : Достоверность
Использование точного потока : Да
Отключение кэша аудио : Да
Использование указателей C2 : Нет

Коррекция смещения при чтении : 48
Способность читать области Lead-in и Lead-out : Нет
Заполнение пропущенных сэмплов тишиной : Да
Удаление блоков с тишиной в начале и конце : Нет
При вычислениях CRC использовались нулевые сэмплы : Да
Интерфейс : Встроенный Win32-интерфейс для Win NT/2000

Выходной формат : Внутренние WAV-операции
Формат сэмплов : 44.100 Гц; 16 бит; стерео

TOC извлечённого CD

Трек | Старт | Длительность | Начальный сектор | Конечный сектор
———————————————————————
1 | 0:00.32 | 3:28.38 | 32 | 15669
2 | 3:28.70 | 2:26.35 | 15670 | 26654
3 | 5:55.30 | 2:39.07 | 26655 | 38586
4 | 8:34.37 | 2:12.60 | 38587 | 48546
5 | 10:47.22 | 2:39.35 | 48547 | 60506
6 | 13:26.57 | 3:25.55 | 60507 | 75936
7 | 16:52.37 | 3:20.05 | 75937 | 90941
8 | 20:12.42 | 3:07.08 | 90942 | 104974
9 | 23:19.50 | 2:42.60 | 104975 | 117184
10 | 26:02.35 | 2:20.20 | 117185 | 127704
11 | 28:22.55 | 2:44.47 | 127705 | 140051
12 | 31:07.27 | 2:54.60 | 140052 | 153161

Характеристики диапазона извлечения и сообщения об ошибках

Выбранный диапазон

Имя файла F:\Ringo_CDs\Sentimental Journey\Ringo Starr – Sentimental Journey.wav

Пиковый уровень 99.9 %
Качество диапазона 100.0 %
CRC теста 783A061C
CRC копии 783A061C
Копирование… OK

Ошибок не произошло

AccurateRip: сводка

Трек 1 точное извлечение (доверие 5) [B2E523D4]
Трек 2 точное извлечение (доверие 6) [0034BFB0]
Трек 3 точное извлечение (доверие 6) [D2CBF69A]
Трек 4 точное извлечение (доверие 6) [23C5FB30]
Трек 5 точное извлечение (доверие 6) [490DF8A0]
Трек 6 точное извлечение (доверие 6) [612076C9]
Трек 7 точное извлечение (доверие 6) [22901783]
Трек 8 точное извлечение (доверие 6) [5591CA2C]
Трек 9 точное извлечение (доверие 6) [E25B21CD]
Трек 10 точное извлечение (доверие 6) [0664D43C]
Трек 11 точное извлечение (доверие 6) [9CA298C0]
Трек 12 точное извлечение (доверие 6) [3D03CA28]

Все треки извлечены точно

Конец отчёта

REM GENRE Rock
REM DATE 1970
REM DISCID 8B07FA0C
REM COMMENT “ExactAudioCopy v0.99pb5”
PERFORMER “Ringo Starr”
TITLE “Sentimental Journey”
FILE “Ringo Starr – Sentimental Journey.flac” WAVE
TRACK 01 AUDIO
TITLE “Sentimental Journey”
PERFORMER “Ringo Starr”
INDEX 00 00:00:00
INDEX 01 00:00:32
TRACK 02 AUDIO
TITLE “Night And Day”
PERFORMER “Ringo Starr”
INDEX 00 03:25:30
INDEX 01 03:28:70
TRACK 03 AUDIO
TITLE “Whispering Grass”
PERFORMER “Ringo Starr”
INDEX 00 05:53:50
INDEX 01 05:55:30
TRACK 04 AUDIO
TITLE “Bye Bye Blackbird”
PERFORMER “Ringo Starr”
INDEX 00 08:31:40
INDEX 01 08:34:37
TRACK 05 AUDIO
TITLE “I’m A Fool To Care”
PERFORMER “Ringo Starr”
INDEX 00 10:45:05
INDEX 01 10:47:22
TRACK 06 AUDIO
TITLE “Stardust”
PERFORMER “Ringo Starr”
INDEX 00 13:25:55
INDEX 01 13:26:57
TRACK 07 AUDIO
TITLE “Blue Turning Grey over You”
PERFORMER “Ringo Starr”
INDEX 00 16:48:35
INDEX 01 16:52:37
TRACK 08 AUDIO
TITLE “Love Is A Many Splendored Thing”
PERFORMER “Ringo Starr”
INDEX 00 20:10:55
INDEX 01 20:12:42
TRACK 09 AUDIO
TITLE “Dream”
PERFORMER “Ringo Starr”
INDEX 00 23:17:30
INDEX 01 23:19:50
TRACK 10 AUDIO
TITLE “You Always Hurt The One You Love”
PERFORMER “Ringo Starr”
INDEX 00 26:00:47
INDEX 01 26:02:35
TRACK 11 AUDIO
TITLE “Have I Told You Lately That I Love You”
PERFORMER “Ringo Starr”
INDEX 00 28:21:37
INDEX 01 28:22:55
TRACK 12 AUDIO
TITLE “Let The Rest Of The World Go By”
PERFORMER “Ringo Starr”
INDEX 00 31:05:72
INDEX 01 31:07:27


Leave a Reply

Your email address will not be published. Required fields are marked *

This site uses Akismet to reduce spam. Learn how your comment data is processed.