Ringo Starr – Ringo’s Rotogravure




[Total: 0    Average: 0/5]

Artist: Ringo Starr
Year: 1976/1992
Genre: Rock
Notes: Discogs
Add. Notes:
Cover incl.: Yes
Encoder: FLAC
Bitrate: ~800 kBit/s (44.1 kHz/16 Bit/s)
Log & Cue incl.: Yes
Size: 230 MB
Password: “slam” (without ” “)


All Downloads/Hosters are compatible

Download 1
KatFile.com
Turbobit.net
FileFactory.com
Rapidgator.net
Download 2
KatFile.com
Turbobit.net
FileFactory.com
Rapidgator.net

Tracklist:

1. A Dose Of Rock 'N' Roll
2. Hey Baby
3. Pure Gold
4. Cryin'
5. You Don't Know Me At All
6. Cookin' (In The Kitchen Of Love)
7. I'll Still Love You
8. This Be Called A Song
9. Las Brisas
10. Lady Gaye
11. Spooky Weirdness

EAC-Log, CUE-Sheed & NFO:

Click to open spoiler
Exact Audio Copy V0.99 prebeta 5 from 4. May 2009

Отчёт EAC об извлечении, выполненном 24. января 2015, 22:32

Ringo Starr / Ringo’s Rotogravure

Дисковод: SONY BD RW BDX-S500U Adapter: 1 ID: 0

Режим чтения : Достоверность
Использование точного потока : Да
Отключение кэша аудио : Да
Использование указателей C2 : Нет

Коррекция смещения при чтении : 48
Способность читать области Lead-in и Lead-out : Нет
Заполнение пропущенных сэмплов тишиной : Да
Удаление блоков с тишиной в начале и конце : Нет
При вычислениях CRC использовались нулевые сэмплы : Да
Интерфейс : Встроенный Win32-интерфейс для Win NT/2000

Выходной формат : Внутренние WAV-операции
Формат сэмплов : 44.100 Гц; 16 бит; стерео

TOC извлечённого CD

Трек | Старт | Длительность | Начальный сектор | Конечный сектор
———————————————————————
1 | 0:00.32 | 3:24.33 | 32 | 15364
2 | 3:24.65 | 3:11.17 | 15365 | 29706
3 | 6:36.07 | 3:15.00 | 29707 | 44331
4 | 9:51.07 | 3:17.73 | 44332 | 59179
5 | 13:09.05 | 3:16.67 | 59180 | 73946
6 | 16:25.72 | 3:42.15 | 73947 | 90611
7 | 20:08.12 | 2:58.63 | 90612 | 104024
8 | 23:07.00 | 3:15.35 | 104025 | 118684
9 | 26:22.35 | 3:34.70 | 118685 | 134804
10 | 29:57.30 | 2:59.17 | 134805 | 148246
11 | 32:56.47 | 1:26.28 | 148247 | 154724

Характеристики диапазона извлечения и сообщения об ошибках

Выбранный диапазон

Имя файла F:\Ringo_CDs\Ringo’s Rotogravure\Ringo Starr – Ringo’s Rotogravure.wav

Пиковый уровень 100.0 %
Качество диапазона 100.0 %
CRC теста 00DE6263
CRC копии 00DE6263
Копирование… OK

Ошибок не произошло

AccurateRip: сводка

Трек 1 точное извлечение (доверие 5) [98981DE2]
Трек 2 точное извлечение (доверие 6) [81DC7D11]
Трек 3 точное извлечение (доверие 6) [39142A9B]
Трек 4 точное извлечение (доверие 6) [395BF183]
Трек 5 точное извлечение (доверие 6) [B7338F0A]
Трек 6 точное извлечение (доверие 6) [A16B2324]
Трек 7 точное извлечение (доверие 6) [B7272FD4]
Трек 8 точное извлечение (доверие 5) [29A67A9E]
Трек 9 точное извлечение (доверие 5) [B5B8FA51]
Трек 10 точное извлечение (доверие 5) [6EDB7431]
Трек 11 точное извлечение (доверие 5) [AF2ED0F6]

Все треки извлечены точно

Конец отчёта

REM GENRE Rock
REM DATE 1976
REM DISCID B6080F0B
REM COMMENT “ExactAudioCopy v0.99pb5”
PERFORMER “Ringo Starr”
TITLE “Ringo’s Rotogravure”
FILE “Ringo Starr – Ringo’s Rotogravure.flac” WAVE
TRACK 01 AUDIO
TITLE “A Dose Of Rock ‘N’ Roll”
PERFORMER “Ringo Starr”
INDEX 00 00:00:00
INDEX 01 00:00:32
TRACK 02 AUDIO
TITLE “Hey Baby”
PERFORMER “Ringo Starr”
INDEX 00 03:24:25
INDEX 01 03:24:65
TRACK 03 AUDIO
TITLE “Pure Gold”
PERFORMER “Ringo Starr”
INDEX 01 06:36:07
TRACK 04 AUDIO
TITLE “Cryin'”
PERFORMER “Ringo Starr”
INDEX 00 09:50:22
INDEX 01 09:51:07
TRACK 05 AUDIO
TITLE “You Don’t Know Me At All”
PERFORMER “Ringo Starr”
INDEX 00 13:08:65
INDEX 01 13:09:05
TRACK 06 AUDIO
TITLE “Cookin’ (In The Kitchen Of Love)”
PERFORMER “Ringo Starr”
INDEX 00 16:25:00
INDEX 01 16:25:72
TRACK 07 AUDIO
TITLE “I’ll Still Love You”
PERFORMER “Ringo Starr”
INDEX 00 20:06:42
INDEX 01 20:08:12
TRACK 08 AUDIO
TITLE “This Be Called A Song”
PERFORMER “Ringo Starr”
INDEX 00 23:04:67
INDEX 01 23:07:00
TRACK 09 AUDIO
TITLE “Las Brisas”
PERFORMER “Ringo Starr”
INDEX 00 26:20:57
INDEX 01 26:22:35
TRACK 10 AUDIO
TITLE “Lady Gaye”
PERFORMER “Ringo Starr”
INDEX 00 29:55:30
INDEX 01 29:57:30
TRACK 11 AUDIO
TITLE “Spooky Weirdness”
PERFORMER “Ringo Starr”
INDEX 00 32:54:40
INDEX 01 32:56:47


Spread the Download

Leave a Reply

Your email address will not be published. Required fields are marked *

Enter the text from the image below
 

This site uses Akismet to reduce spam. Learn how your comment data is processed.