Ringo Starr – Ringo




No Cover available

Artist: Ringo Starr
Year: 1973/1991
Genre: Rock
Notes: Discogs
Add. Notes:
Watch Songs on: YouTube
Cover incl.: Yes
Encoder: FLAC
Bitrate: ~800 kBit/s (44.1 kHz/16 Bit/s)
Log & Cue incl.: Yes/Yes
Size: 353 MB
Password: “slam” (without ” “)


All Downloads/Hosters are compatible

Download 1
KatFile.com
Turbobit.net
Rapidgator.net
FileFactory.com
Download 2
KatFile.com
Turbobit.net
Rapidgator.net
FileFactory.com

Tracklist:

1 I'm The Greatest 3:21
2 Have You Seen My Baby 3:45
3 Photograph 3:57
4 Sunshine Life For Me (Sail Away Raymond) 2:45
5 You're Sixteen (You're Beautiful And You're Mine) 2:48
6 Oh My My 4:17
7 Step Lightly 3:16
8 Six O'Clock 4:08
9 Devil Woman 3:50
10 You And Me (Babe) 5:00
11 It Don't Come Easy 3:03
12 Early 1970 2:21
13 Down And Out 3:04

EAC-Log, CUE-Sheed & NFO:

Click to open spoiler
Exact Audio Copy V1.0 beta 3 from 29. August 2011

EAC extraction logfile from 8. March 2015, 10:02

Ringo Starr / Ringo (CDP 7 95637 2)

Used drive : PLEXTOR DVDR PX-891SA Adapter: 3 ID: 0

Read mode : Secure
Utilize accurate stream : Yes
Defeat audio cache : Yes
Make use of C2 pointers : No

Read offset correction : 6
Overread into Lead-In and Lead-Out : No
Fill up missing offset samples with silence : Yes
Delete leading and trailing silent blocks : No
Null samples used in CRC calculations : Yes
Used interface : Native Win32 interface for Win NT & 2000

Used output format : User Defined Encoder
Selected bitrate : 1024 kBit/s
Quality : High
Add ID3 tag : No
Command line compressor : C:\Program Files\Exact Audio Copy\Flac\flac.exe
Additional command line options : -V -8 -T “Genre=%genre%” -T “Artist=%artist%” -T “Title=%title%” -T “Album=%albumtitle%” -T “Date=%year%” -T “Tracknumber=%tracknr%” -T “Comment=%comment%” %source%

TOC of the extracted CD

Track | Start | Length | Start sector | End sector
———————————————————
1 | 0:00.00 | 3:21.35 | 0 | 15109
2 | 3:21.35 | 3:44.72 | 15110 | 31981
3 | 7:06.32 | 3:57.25 | 31982 | 49781
4 | 11:03.57 | 2:45.10 | 49782 | 62166
5 | 13:48.67 | 2:48.33 | 62167 | 74799
6 | 16:37.25 | 4:16.55 | 74800 | 94054
7 | 20:54.05 | 3:15.57 | 94055 | 108736
8 | 24:09.62 | 4:08.35 | 108737 | 127371
9 | 28:18.22 | 3:50.08 | 127372 | 144629
10 | 32:08.30 | 4:59.45 | 144630 | 167099
11 | 37:08.00 | 3:02.45 | 167100 | 180794
12 | 40:10.45 | 2:20.57 | 180795 | 191351
13 | 42:31.27 | 3:02.08 | 191352 | 205009

Range status and errors

Selected range

Filename H:\dafnaplus\Ringo Starr – Ringo\Ringo Starr – Ringo (CDP 7 95637 2).wav

Peak level 97.3 %
Extraction speed 8.3 X
Range quality 100.0 %
Test CRC F9657505
Copy CRC F9657505
Copy OK

No errors occurred

AccurateRip summary

Track 1 accurately ripped (confidence 16) [350E8AA9] (AR v2)
Track 2 accurately ripped (confidence 15) [644ADE15] (AR v2)
Track 3 accurately ripped (confidence 15) [E3759C4E] (AR v2)
Track 4 accurately ripped (confidence 16) [91B24CFF] (AR v2)
Track 5 accurately ripped (confidence 16) [74B1305E] (AR v2)
Track 6 accurately ripped (confidence 16) [ED5FAE8A] (AR v2)
Track 7 accurately ripped (confidence 16) [5276301E] (AR v2)
Track 8 accurately ripped (confidence 16) [4D817E7E] (AR v2)
Track 9 accurately ripped (confidence 16) [67247192] (AR v2)
Track 10 accurately ripped (confidence 16) [CDB47D74] (AR v2)
Track 11 accurately ripped (confidence 16) [CA55DDA1] (AR v2)
Track 12 accurately ripped (confidence 16) [EC1D8804] (AR v2)
Track 13 accurately ripped (confidence 16) [9733713C] (AR v2)

All tracks accurately ripped

End of status report

==== Log checksum 3860830371EE8915B53E24227634AF1340B22C383DDEE6B086FEE9FB03ADFB40 ====

REM GENRE Rock
REM DATE 1991
REM DISCID 990AAD0D
REM COMMENT “ExactAudioCopy v1.0b3”
PERFORMER “Ringo Starr”
TITLE “Ringo (CDP 7 95637 2)”
FILE “Ringo Starr – Ringo (CDP 7 95637 2).flac” WAVE
TRACK 01 AUDIO
TITLE “I’m The Greatest”
PERFORMER “Ringo Starr”
INDEX 01 00:00:00
TRACK 02 AUDIO
TITLE “Have You Seen My Baby?”
PERFORMER “Ringo Starr”
INDEX 00 03:20:65
INDEX 01 03:21:35
TRACK 03 AUDIO
TITLE “Photograph”
PERFORMER “Ringo Starr”
INDEX 01 07:06:32
TRACK 04 AUDIO
TITLE “Sunshine Life For Me (Sail Away Raymond)”
PERFORMER “Ringo Starr”
INDEX 00 11:03:00
INDEX 01 11:03:57
TRACK 05 AUDIO
TITLE “You’re Sixteen (You’re Beautiful And You’re Mine)”
PERFORMER “Ringo Starr”
INDEX 00 13:48:65
INDEX 01 13:48:67
TRACK 06 AUDIO
TITLE “Oh My My”
PERFORMER “Ringo Starr”
INDEX 00 16:36:30
INDEX 01 16:37:25
TRACK 07 AUDIO
TITLE “Step Lightly”
PERFORMER “Ringo Starr”
INDEX 00 20:53:40
INDEX 01 20:54:05
TRACK 08 AUDIO
TITLE “Six O’Clock”
PERFORMER “Ringo Starr”
INDEX 00 24:09:02
INDEX 01 24:09:62
TRACK 09 AUDIO
TITLE “Devil Woman”
PERFORMER “Ringo Starr”
INDEX 00 28:15:47
INDEX 01 28:18:22
TRACK 10 AUDIO
TITLE “You And Me (Babe)”
PERFORMER “Ringo Starr”
INDEX 01 32:08:30
TRACK 11 AUDIO
TITLE “It Don’t Come Easy (Bonus Track)”
PERFORMER “Ringo Starr”
INDEX 00 37:07:35
INDEX 01 37:08:00
TRACK 12 AUDIO
TITLE “Early 1970 (Bonus Track)”
PERFORMER “Ringo Starr”
INDEX 00 40:09:17
INDEX 01 40:10:45
TRACK 13 AUDIO
TITLE “Down And Out (Bonus Track)”
PERFORMER “Ringo Starr”
INDEX 00 42:30:57
INDEX 01 42:31:27


Leave a Reply

Your email address will not be published. Required fields are marked *

This site uses Akismet to reduce spam. Learn how your comment data is processed.