Ringo Starr – Ringo Starr And His All Starr Band Volume 2: Live From Montreux




No Cover available

Artist: Ringo Starr
Year: 1993
Genre: Rock
Notes: Discogs
Add. Notes:
Watch Songs on: YouTube
Cover incl.: Yes
Encoder: FLAC
Bitrate: ~900 kBit/s (44.1 kHz/16 Bit/s)
Log & Cue incl.: Yes/Yes
Size: 416 MB
Password: “slam” (without ” “)


All Downloads/Hosters are compatible

Download 1
KatFile.com
Turbobit.net
Rapidgator.net
FileFactory.com
Download 2
KatFile.com
Turbobit.net
Rapidgator.net
FileFactory.com

Tracklist:

1 The Really "Serious" Introduction 2:04
2 I'm The Greatest 3:28
3 Don't Go Where The Road Don't Go 4:45
4 Yellow Submarine 4:10
5 Desperado 2:33
6 I Can't Tell You Why 5:14
7 Girls Talk 3:35
8 Weight Of The World 4:11
9 Bang The Drum All Day 3:40
10 Walking Nerve 4:06
11 Black Maria 5:27
12 In The City 4:33
13 American Woman 6:21
14 Boys 3:50
15 With A Little Help From My Friends 7:07

EAC-Log, CUE-Sheed & NFO:

Click to open spoiler
Exact Audio Copy V0.99 prebeta 5 from 4. May 2009

Отчёт EAC об извлечении, выполненном 23. мая 2011, 11:46

Ringo Starr And His All Star Band / Ringo Starr And His All Star Band Volume 2: Live From Montreux

Дисковод: HL-DT-STDVD-RAM GH22LP20 Adapter: 0 ID: 1

Режим чтения : Достоверность
Использование точного потока : Да
Отключение кэша аудио : Да
Использование указателей C2 : Нет

Коррекция смещения при чтении : 102
Способность читать области Lead-in и Lead-out : Нет
Заполнение пропущенных сэмплов тишиной : Да
Удаление блоков с тишиной в начале и конце : Нет
При вычислениях CRC использовались нулевые сэмплы : Да
Интерфейс : Встроенный Win32-интерфейс для Win NT/2000

Выходной формат : Внутренние WAV-операции
Формат сэмплов : 44.100 Гц; 16 бит; стерео

TOC извлечённого CD

Трек | Старт | Длительность | Начальный сектор | Конечный сектор
———————————————————————
1 | 0:00.00 | 2:04.00 | 0 | 9299
2 | 2:04.00 | 3:28.47 | 9300 | 24946
3 | 5:32.47 | 4:45.50 | 24947 | 46371
4 | 10:18.22 | 4:10.58 | 46372 | 65179
5 | 14:29.05 | 2:33.05 | 65180 | 76659
6 | 17:02.10 | 5:14.47 | 76660 | 100256
7 | 22:16.57 | 3:35.35 | 100257 | 116416
8 | 25:52.17 | 4:11.53 | 116417 | 135294
9 | 30:03.70 | 3:41.02 | 135295 | 151871
10 | 33:44.72 | 4:05.68 | 151872 | 170314
11 | 37:50.65 | 5:27.42 | 170315 | 194881
12 | 43:18.32 | 4:33.20 | 194882 | 215376
13 | 47:51.52 | 6:20.73 | 215377 | 243949
14 | 54:12.50 | 3:50.42 | 243950 | 261241
15 | 58:03.17 | 7:07.45 | 261242 | 293311

Характеристики диапазона извлечения и сообщения об ошибках

Выбранный диапазон

Имя файла D:\Downloads\Ringo Starr And His All Star Band – Ringo Starr And His All Star Band Volume 2 Live From Montreux.wav

Пиковый уровень 89.1 %
Качество диапазона 100.0 %
CRC теста 7D8595A7
CRC копии 7D8595A7
Копирование… OK

Ошибок не произошло

AccurateRip: сводка

Трек 1 точное извлечение (доверие 1) [75692488]
Трек 2 точное извлечение (доверие 2) [A247FED4]
Трек 3 точное извлечение (доверие 2) [40E4B40F]
Трек 4 точное извлечение (доверие 2) [87E2DF21]
Трек 5 точное извлечение (доверие 2) [58DBEDF9]
Трек 6 точное извлечение (доверие 2) [5543EEDC]
Трек 7 точное извлечение (доверие 2) [96D97FE1]
Трек 8 точное извлечение (доверие 2) [4C5889C6]
Трек 9 точное извлечение (доверие 2) [CAA8D77C]
Трек 10 точное извлечение (доверие 2) [210F87E7]
Трек 11 точное извлечение (доверие 2) [627F4800]
Трек 12 точное извлечение (доверие 2) [BDBD8590]
Трек 13 точное извлечение (доверие 2) [8F1FFAD8]
Трек 14 точное извлечение (доверие 2) [80ADFC2F]
Трек 15 точное извлечение (доверие 2) [A17435E6]

Все треки извлечены точно

Конец отчёта

REM GENRE Rock
REM DATE 1993
REM DISCID B50F460F
REM COMMENT “ExactAudioCopy v0.99pb5”
PERFORMER “Ringo Starr And His All Star Band”
TITLE “Ringo Starr And His All Star Band Volume 2: Live From Montreux”
FILE “Ringo Starr And His All Star Band – Ringo Starr And His All Star Band Volume 2 Live From Montreux.flac” WAVE
TRACK 01 AUDIO
TITLE “The Really ‘Serious’ Introduction”
PERFORMER “Ringo Starr And His All Star Band”
INDEX 01 00:00:00
TRACK 02 AUDIO
TITLE “I’m The Greatest”
PERFORMER “Ringo Starr And His All Star Band”
INDEX 01 02:04:00
TRACK 03 AUDIO
TITLE “Don’t Go Where The Road Don’t Go”
PERFORMER “Ringo Starr And His All Star Band”
INDEX 01 05:32:47
TRACK 04 AUDIO
TITLE “Yellow Submarine”
PERFORMER “Ringo Starr And His All Star Band”
INDEX 01 10:18:22
TRACK 05 AUDIO
TITLE “Desperado”
PERFORMER “Ringo Starr And His All Star Band”
INDEX 01 14:29:05
TRACK 06 AUDIO
TITLE “I Can’t Tell You Why”
PERFORMER “Ringo Starr And His All Star Band”
INDEX 01 17:02:10
TRACK 07 AUDIO
TITLE “Girls Talk”
PERFORMER “Ringo Starr And His All Star Band”
INDEX 01 22:16:57
TRACK 08 AUDIO
TITLE “Weight Of The World”
PERFORMER “Ringo Starr And His All Star Band”
INDEX 01 25:52:17
TRACK 09 AUDIO
TITLE “Bang On The Drum”
PERFORMER “Ringo Starr And His All Star Band”
INDEX 01 30:03:70
TRACK 10 AUDIO
TITLE “Walking Nerve”
PERFORMER “Ringo Starr And His All Star Band”
INDEX 01 33:44:72
TRACK 11 AUDIO
TITLE “Black Maria”
PERFORMER “Ringo Starr And His All Star Band”
INDEX 01 37:50:65
TRACK 12 AUDIO
TITLE “In The City”
PERFORMER “Ringo Starr And His All Star Band”
INDEX 01 43:18:32
TRACK 13 AUDIO
TITLE “American Woman”
PERFORMER “Ringo Starr And His All Star Band”
INDEX 01 47:51:52
TRACK 14 AUDIO
TITLE “Boys”
PERFORMER “Ringo Starr And His All Star Band”
INDEX 01 54:12:50
TRACK 15 AUDIO
TITLE “With A Little Help From My Friends”
PERFORMER “Ringo Starr And His All Star Band”
INDEX 01 58:03:17


Leave a Reply

Your email address will not be published. Required fields are marked *

Enter the text from the image below
 

This site uses Akismet to reduce spam. Learn how your comment data is processed.