Ringo Starr – Ringo Rama




Artist: Ringo Starr
Year: 2003
Genre: Rock
Notes: Discogs
Add. Notes:
Cover incl.: Yes
Encoder: FLAC
Bitrate: ~1000 kBit/s (44.1 kHz/16 Bit/s)
Log & Cue incl.: Yes
Size: 387,86 MB
Password: “slam” (without ” “)


All Downloads/Hosters are compatible

Download 1
KatFile.com
Turbobit.net
FileFactory.com
Rapidgator.net
Download 2
KatFile.com
Turbobit.net
FileFactory.com
Rapidgator.net

Tracklist:

1 Eye To Eye 3:19
2 Missouri Loves Company 3:32
3 Instant Amnesia 5:12
4 Memphis In Your Mind 3:13
5 Never Without You 5:24
6 Imagine Me There 3:55
7 I Think Therefore I Rock N Roll 3:28
8 Trippin' On My Own Tears 3:31
9 Write One For Me 3:14
10 What Love Wants To Be 3:03
11 Lover First, Ask Questions Later 4:44
12 Elizabeth Reigns 3:57
13a English Garden 3:26
13b I Really Love Her 

EAC-Log, CUE-Sheed & NFO:

Click to open spoiler
Exact Audio Copy V0.99 prebeta 5 from 4. May 2009

Отчёт EAC об извлечении, выполненном 25. января 2015, 20:25

Ringo Starr / Ringo Rama

Дисковод: SONY BD RW BDX-S500U Adapter: 1 ID: 0

Режим чтения : Достоверность
Использование точного потока : Да
Отключение кэша аудио : Да
Использование указателей C2 : Нет

Коррекция смещения при чтении : 48
Способность читать области Lead-in и Lead-out : Нет
Заполнение пропущенных сэмплов тишиной : Да
Удаление блоков с тишиной в начале и конце : Нет
При вычислениях CRC использовались нулевые сэмплы : Да
Интерфейс : Встроенный Win32-интерфейс для Win NT/2000

Выходной формат : Внутренние WAV-операции
Формат сэмплов : 44.100 Гц; 16 бит; стерео

TOC извлечённого CD

Трек | Старт | Длительность | Начальный сектор | Конечный сектор
———————————————————————
1 | 0:00.00 | 3:19.24 | 0 | 14948
2 | 3:19.24 | 3:32.74 | 14949 | 30922
3 | 6:52.23 | 5:12.55 | 30923 | 54377
4 | 12:05.03 | 3:13.52 | 54378 | 68904
5 | 15:18.55 | 5:24.11 | 68905 | 93215
6 | 20:42.66 | 3:55.57 | 93216 | 110897
7 | 24:38.48 | 3:25.12 | 110898 | 126284
8 | 28:03.60 | 3:31.44 | 126285 | 142153
9 | 31:35.29 | 3:14.46 | 142154 | 156749
10 | 34:50.00 | 3:03.18 | 156750 | 170492
11 | 37:53.18 | 4:44.61 | 170493 | 191853
12 | 42:38.04 | 3:57.11 | 191854 | 209639
13 | 46:35.15 | 3:26.06 | 209640 | 225095

Характеристики диапазона извлечения и сообщения об ошибках

Выбранный диапазон

Имя файла F:\Ringo_CDs\Ringo Rama\Ringo Starr – Ringo Rama.wav

Пиковый уровень 100.0 %
Качество диапазона 100.0 %
CRC теста 7F2AEA97
CRC копии 7F2AEA97
Копирование… OK

Ошибок не произошло

AccurateRip: сводка

Трек 1 точное извлечение (доверие 19) [5530158E]
Трек 2 точное извлечение (доверие 19) [9DB68F53]
Трек 3 точное извлечение (доверие 19) [3CEB88F2]
Трек 4 точное извлечение (доверие 19) [C71FAE11]
Трек 5 точное извлечение (доверие 19) [7B2D6B79]
Трек 6 точное извлечение (доверие 19) [A7F38B49]
Трек 7 точное извлечение (доверие 19) [1CCCD067]
Трек 8 точное извлечение (доверие 19) [765C0149]
Трек 9 точное извлечение (доверие 19) [BBF88523]
Трек 10 точное извлечение (доверие 19) [778C1BB0]
Трек 11 точное извлечение (доверие 19) [2B26135E]
Трек 12 точное извлечение (доверие 19) [EF1A75FA]
Трек 13 точное извлечение (доверие 18) [CDC2E5E5]

Все треки извлечены точно

Конец отчёта

REM GENRE Rock
REM DATE 2003
REM DISCID B10BB90D
REM COMMENT “ExactAudioCopy v0.99pb5”
PERFORMER “Ringo Starr”
TITLE “Ringo Rama”
FILE “Ringo Starr – Ringo Rama.flac” WAVE
TRACK 01 AUDIO
TITLE “Eye To Eye”
PERFORMER “Ringo Starr”
FLAGS DCP
INDEX 01 00:00:00
TRACK 02 AUDIO
TITLE “Missouri Loves Company”
PERFORMER “Ringo Starr”
FLAGS DCP
INDEX 01 03:19:24
TRACK 03 AUDIO
TITLE “Instant Amnesia”
PERFORMER “Ringo Starr”
FLAGS DCP
INDEX 01 06:52:23
TRACK 04 AUDIO
TITLE “Memphis In Your Mind”
PERFORMER “Ringo Starr”
FLAGS DCP
INDEX 01 12:05:03
TRACK 05 AUDIO
TITLE “Never Without You”
PERFORMER “Ringo Starr”
FLAGS DCP
INDEX 01 15:18:55
TRACK 06 AUDIO
TITLE “Imagine Me There”
PERFORMER “Ringo Starr”
FLAGS DCP
INDEX 01 20:42:66
TRACK 07 AUDIO
TITLE “I Think Therefore I Rock N Roll”
PERFORMER “Ringo Starr”
FLAGS DCP
INDEX 01 24:38:48
TRACK 08 AUDIO
TITLE “Trippin’ On Own Tears”
PERFORMER “Ringo Starr”
FLAGS DCP
INDEX 01 28:03:60
TRACK 09 AUDIO
TITLE “Write One For Me”
PERFORMER “Ringo Starr”
FLAGS DCP
INDEX 01 31:35:29
TRACK 10 AUDIO
TITLE “What Love Wants To Be”
PERFORMER “Ringo Starr”
FLAGS DCP
INDEX 01 34:50:00
TRACK 11 AUDIO
TITLE “Love First, Ask Questions Later”
PERFORMER “Ringo Starr”
FLAGS DCP
INDEX 01 37:53:18
TRACK 12 AUDIO
TITLE “Elizabeths Teigns”
PERFORMER “Ringo Starr”
FLAGS DCP
INDEX 01 42:38:04
TRACK 13 AUDIO
TITLE “English Garden”
PERFORMER “Ringo Starr”
FLAGS DCP
INDEX 01 46:35:15


Leave a Reply

Your email address will not be published. Required fields are marked *

This site uses Akismet to reduce spam. Learn how your comment data is processed.