Ringo Starr – Ringo (Limited Japanese Edition)




No Cover available

Artist: Ringo Starr
Year: 1973/2008
Genre: Rock
Notes: Discogs
Add. Notes: Limited Japanese Edition
Watch Songs on: YouTube
Cover incl.: Yes
Encoder: FLAC
Bitrate: ~900 kBit/s (44.1 kHz/16 Bit/s)
Log & Cue incl.: Yes/Yes
Size: 372,7 MB
Password: “slam” (without ” “)


All Downloads/Hosters are compatible

Download 1
KatFile.com
Turbobit.net
FileFactory.com
Rapidgator.net
Download 2
KatFile.com
Turbobit.net
FileFactory.com
Rapidgator.net

Tracklist:

1 I'm The Greatest 3:23
2 Have You Seen My Baby (Hold On) 3:43
3 Photograph 3:58
4 Down And Out 
5 Sunshine Life For Me (Sail Away Raymond) 2:44
6 You're Sixteen (You're Beautiful And Your Mine) 2:50
7 Oh My My 4:17
8 Step Lightly 3:15
9 Six O'Clock 5:26
10 Devil Woman 4:01
11 You And Me (Babe) 4:58

Bonus Tracks:
12 It Don't Come Easy 
13 Early 1970 

EAC-Log, CUE-Sheed & NFO:

Click to open spoiler
Exact Audio Copy V0.99 prebeta 5 from 4. May 2009

Отчёт EAC об извлечении, выполненном 24. января 2015, 21:59

Ringo Starr / Ringo

Дисковод: SONY BD RW BDX-S500U Adapter: 1 ID: 0

Режим чтения : Достоверность
Использование точного потока : Да
Отключение кэша аудио : Да
Использование указателей C2 : Нет

Коррекция смещения при чтении : 48
Способность читать области Lead-in и Lead-out : Нет
Заполнение пропущенных сэмплов тишиной : Да
Удаление блоков с тишиной в начале и конце : Нет
При вычислениях CRC использовались нулевые сэмплы : Да
Интерфейс : Встроенный Win32-интерфейс для Win NT/2000

Выходной формат : Внутренние WAV-операции
Формат сэмплов : 44.100 Гц; 16 бит; стерео

TOC извлечённого CD

Трек | Старт | Длительность | Начальный сектор | Конечный сектор
———————————————————————
1 | 0:00.00 | 3:26.40 | 0 | 15489
2 | 3:26.40 | 3:46.32 | 15490 | 32471
3 | 7:12.72 | 3:59.58 | 32472 | 50454
4 | 11:12.55 | 3:04.15 | 50455 | 64269
5 | 14:16.70 | 2:47.62 | 64270 | 76856
6 | 17:04.57 | 2:49.53 | 76857 | 89584
7 | 19:54.35 | 4:19.27 | 89585 | 109036
8 | 24:13.62 | 3:17.70 | 109037 | 123881
9 | 27:31.57 | 4:08.65 | 123882 | 142546
10 | 31:40.47 | 4:03.73 | 142547 | 160844
11 | 35:44.45 | 4:45.00 | 160845 | 182219
12 | 40:29.45 | 3:04.25 | 182220 | 196044
13 | 43:33.70 | 2:21.25 | 196045 | 206644

Характеристики диапазона извлечения и сообщения об ошибках

Выбранный диапазон

Имя файла F:\Ringo_CDs\Ringo\Ringo Starr – Ringo.wav

Пиковый уровень 100.0 %
Качество диапазона 100.0 %
CRC теста 867E5427
CRC копии 867E5427
Копирование… OK

Ошибок не произошло

AccurateRip: сводка

Трек 1 точное извлечение (доверие 3) [B1801FE2]
Трек 2 точное извлечение (доверие 3) [C6635EAF]
Трек 3 точное извлечение (доверие 3) [CCE40A91]
Трек 4 точное извлечение (доверие 3) [FC5F6328]
Трек 5 точное извлечение (доверие 3) [3FF131E6]
Трек 6 точное извлечение (доверие 3) [A19828BB]
Трек 7 точное извлечение (доверие 3) [97181494]
Трек 8 точное извлечение (доверие 3) [17BBFB19]
Трек 9 точное извлечение (доверие 3) [D2EAC74F]
Трек 10 точное извлечение (доверие 3) [F433E01D]
Трек 11 точное извлечение (доверие 3) [9D9891DD]
Трек 12 точное извлечение (доверие 3) [A4F4B798]
Трек 13 точное извлечение (доверие 3) [56FB7A51]

Все треки извлечены точно

Конец отчёта

REM GENRE Rock
REM DATE 1973
REM DISCID A60AC30D
REM COMMENT “ExactAudioCopy v0.99pb5”
PERFORMER “Ringo Starr”
TITLE “Ringo”
FILE “Ringo Starr – Ringo.flac” WAVE
TRACK 01 AUDIO
TITLE “I’m The Greatest”
PERFORMER “Ringo Starr”
INDEX 01 00:00:00
TRACK 02 AUDIO
TITLE “Have You Seen Mine Baby (Hold On)”
PERFORMER “Ringo Starr”
INDEX 00 03:24:57
INDEX 01 03:26:40
TRACK 03 AUDIO
TITLE “Photograph”
PERFORMER “Ringo Starr”
INDEX 00 07:11:05
INDEX 01 07:12:72
TRACK 04 AUDIO
TITLE “Down And Out”
PERFORMER “Ringo Starr”
INDEX 00 11:11:25
INDEX 01 11:12:55
TRACK 05 AUDIO
TITLE “Sunshine Life For Me (Sail Away Raymond)”
PERFORMER “Ringo Starr”
INDEX 00 14:15:27
INDEX 01 14:16:70
TRACK 06 AUDIO
TITLE “You’re Sixteen (You’re Beautiful And You’re Mine)”
PERFORMER “Ringo Starr”
INDEX 00 17:03:12
INDEX 01 17:04:57
TRACK 07 AUDIO
TITLE “Oh My My”
PERFORMER “Ringo Starr”
INDEX 00 19:52:52
INDEX 01 19:54:35
TRACK 08 AUDIO
TITLE “Step Lightly”
PERFORMER “Ringo Starr”
INDEX 00 24:12:42
INDEX 01 24:13:62
TRACK 09 AUDIO
TITLE “Six O’Clock”
PERFORMER “Ringo Starr”
INDEX 00 27:30:20
INDEX 01 27:31:57
TRACK 10 AUDIO
TITLE “Devil Woman”
PERFORMER “Ringo Starr”
INDEX 00 31:39:05
INDEX 01 31:40:47
TRACK 11 AUDIO
TITLE “You And Me (Babe)”
PERFORMER “Ringo Starr”
INDEX 00 35:42:57
INDEX 01 35:44:45
TRACK 12 AUDIO
TITLE “It Don’t Come Easy”
PERFORMER “Ringo Starr”
INDEX 00 40:27:62
INDEX 01 40:29:45
TRACK 13 AUDIO
TITLE “Early 1970”
PERFORMER “Ringo Starr”
INDEX 00 43:32:30
INDEX 01 43:33:70


Leave a Reply

Your email address will not be published. Required fields are marked *

Enter the text from the image below
 

This site uses Akismet to reduce spam. Learn how your comment data is processed.