Ringo Starr – Ringo




No Cover available

Artist: Ringo Starr
Year: 1973/1991
Genre: Rock
Notes: Discogs
Add. Notes:
Watch Songs on: YouTube
Cover incl.: Yes
Encoder: FLAC
Bitrate: ~900 kBit/s (44.1 kHz/16 Bit/s)
Log & Cue incl.: Yes/Yes
Size: 298,66 MB
Password: “slam” (without ” “)


All Downloads/Hosters are compatible

Download 1
KatFile.com
Turbobit.net
Rapidgator.net
FileFactory.com
Download 2
KatFile.com
Turbobit.net
Rapidgator.net
FileFactory.com

Tracklist:

1 I'm The Greatest 
2 Have You Seen My Baby (Hold On) 
3 Photograph 
4 Down And Out 
5 Sunshine Life For Me (Sail Away Raymond) 
6 You're Sixteen (You're Beautiful And You're Mine) 
7 Oh My My 
8 Step Lightly 
9 Six O'Clock 
10 Devil Woman 
11 You And Me (Babe) 
12 It Don't Come Easy 
13 Early 1970

EAC-Log, CUE-Sheed & NFO:

Click to open spoiler
Exact Audio Copy V1.0 beta 3 from 29. August 2011

EAC extraction logfile from 4. November 2013, 10:38

Ringo Starr / Ringo

Used drive : HL-DT-STDVD+-RW GH50N Adapter: 0 ID: 1

Read mode : Secure
Utilize accurate stream : Yes
Defeat audio cache : Yes
Make use of C2 pointers : No

Read offset correction : 667
Overread into Lead-In and Lead-Out : No
Fill up missing offset samples with silence : Yes
Delete leading and trailing silent blocks : No
Null samples used in CRC calculations : Yes
Used interface : Native Win32 interface for Win NT & 2000

Used output format : User Defined Encoder
Selected bitrate : 768 kBit/s
Quality : High
Add ID3 tag : No
Command line compressor : C:\Program Files (x86)\Exact Audio Copy\FLAC\FLAC.EXE
Additional command line options : -V -8 -T “Date=%year%” -T “Genre=%genre%” %source%

TOC of the extracted CD

Track | Start | Length | Start sector | End sector
———————————————————
1 | 0:00.33 | 3:26.40 | 33 | 15522
2 | 3:26.73 | 3:46.32 | 15523 | 32504
3 | 7:13.30 | 3:59.58 | 32505 | 50487
4 | 11:13.13 | 3:04.15 | 50488 | 64302
5 | 14:17.28 | 2:47.62 | 64303 | 76889
6 | 17:05.15 | 2:49.53 | 76890 | 89617
7 | 19:54.68 | 4:19.27 | 89618 | 109069
8 | 24:14.20 | 3:17.70 | 109070 | 123914
9 | 27:32.15 | 4:08.65 | 123915 | 142579
10 | 31:41.05 | 4:03.73 | 142580 | 160877
11 | 35:45.03 | 4:45.00 | 160878 | 182252
12 | 40:30.03 | 3:04.25 | 182253 | 196077
13 | 43:34.28 | 2:21.25 | 196078 | 206677

Range status and errors

Selected range

Filename C:\222\MIX\1973 – Ringo Starr – Ringo\Ringo Starr – Ringo.wav

Peak level 100.0 %
Extraction speed 1.9 X
Range quality 100.0 %
Test CRC ABFB38AC
Copy CRC ABFB38AC
Copy OK

No errors occurred

AccurateRip summary

Track 1 accurately ripped (confidence 2) [0E6F50DB] (AR v2)
Track 2 accurately ripped (confidence 2) [BFB6D5E4] (AR v2)
Track 3 accurately ripped (confidence 2) [84B43DA9] (AR v2)
Track 4 accurately ripped (confidence 2) [295D0E52] (AR v2)
Track 5 accurately ripped (confidence 2) [B446326E] (AR v2)
Track 6 accurately ripped (confidence 2) [8AEA0950] (AR v2)
Track 7 accurately ripped (confidence 2) [97493B45] (AR v2)
Track 8 accurately ripped (confidence 2) [DE9CB976] (AR v2)
Track 9 accurately ripped (confidence 2) [69F1627A] (AR v2)
Track 10 accurately ripped (confidence 2) [8685BD03] (AR v2)
Track 11 accurately ripped (confidence 2) [B2574499] (AR v2)
Track 12 accurately ripped (confidence 2) [127F655B] (AR v2)
Track 13 accurately ripped (confidence 2) [98A8E87F] (AR v2)

All tracks accurately ripped

End of status report

==== Log checksum 2558A686020C394EEC8E00C715B182E6776E1E40E196F99E8819BC946847D3BF ====

REM GENRE Rock
REM DATE 1973
REM DISCID B00AC30D
REM COMMENT “ExactAudioCopy v1.0b3”
PERFORMER “Ringo Starr”
TITLE “Ringo”
FILE “Ringo Starr – Ringo.flac” WAVE
TRACK 01 AUDIO
TITLE “I’m The Greatest”
PERFORMER “Ringo Starr”
INDEX 00 00:00:00
INDEX 01 00:00:33
TRACK 02 AUDIO
TITLE “Have You Seen My Baby (Hold On)”
PERFORMER “Ringo Starr”
INDEX 00 03:25:15
INDEX 01 03:26:73
TRACK 03 AUDIO
TITLE “Photograph”
PERFORMER “Ringo Starr”
INDEX 00 07:11:38
INDEX 01 07:13:30
TRACK 04 AUDIO
TITLE “Down And Out”
PERFORMER “Ringo Starr”
INDEX 00 11:11:58
INDEX 01 11:13:13
TRACK 05 AUDIO
TITLE “Sunshine Life For Me (Sail Away Raymond)”
PERFORMER “Ringo Starr”
INDEX 00 14:15:60
INDEX 01 14:17:28
TRACK 06 AUDIO
TITLE “You’re Sixteen (You’re Beautiful And You’re Mine)”
PERFORMER “Ringo Starr”
INDEX 00 17:03:45
INDEX 01 17:05:15
TRACK 07 AUDIO
TITLE “Oh My My”
PERFORMER “Ringo Starr”
INDEX 00 19:53:10
INDEX 01 19:54:68
TRACK 08 AUDIO
TITLE “Step Lightly”
PERFORMER “Ringo Starr”
INDEX 00 24:13:00
INDEX 01 24:14:20
TRACK 09 AUDIO
TITLE “Six O’Clock”
PERFORMER “Ringo Starr”
INDEX 00 27:30:53
INDEX 01 27:32:15
TRACK 10 AUDIO
TITLE “Devil Woman”
PERFORMER “Ringo Starr”
INDEX 00 31:39:38
INDEX 01 31:41:05
TRACK 11 AUDIO
TITLE “You And Me (Babe)”
PERFORMER “Ringo Starr”
INDEX 00 35:43:15
INDEX 01 35:45:03
TRACK 12 AUDIO
TITLE “It Don’t Come Easy”
PERFORMER “Ringo Starr”
INDEX 00 40:28:20
INDEX 01 40:30:03
TRACK 13 AUDIO
TITLE “Early 1970”
PERFORMER “Ringo Starr”
INDEX 00 43:32:63
INDEX 01 43:34:28


0

Publication author

offline 14 hours

Chaos

3
Comments: 4Publics: 3418Registration: 02-02-2019
Spread the Download

Leave a Reply

Your email address will not be published. Required fields are marked *

Enter the text from the image below
 

This site uses Akismet to reduce spam. Learn how your comment data is processed.