Ringo Starr – Postcards From Paradise




No Cover available

Artist: Ringo Starr
Year: 2015
Genre: Rock
Notes: Discogs
Add. Notes:
Watch Songs on: YouTube
Cover incl.: Yes
Encoder: FLAC
Bitrate: ~900 kBit/s (44.1 kHz/16 Bit/s)
Log & Cue incl.: Yes/Yes
Size: 318,3 MB
Password: “slam” (without ” “)


All Downloads/Hosters are compatible

Download 1
KatFile.com
Turbobit.net
Rapidgator.net
FileFactory.com
Download 2
KatFile.com
Turbobit.net
Rapidgator.net
FileFactory.com

Tracklist:

01. Rory And The Hurricanes 4:11
02. You Bring The Party Down 3:43
03. Bridges 5:01
04. Postcards From Paradise 5:20
05. Right Side Of The Road 3:15
06. Not Looking Back 3:51
07. Bamboula 3:23
08. Island In The Sun 4:03
09. Touch And Go 3:38
10. Confirmation 3:39
11. Let Love Lead 4:11

EAC-Log, CUE-Sheed & NFO:

Click to open spoiler
Exact Audio Copy V1.0 beta 6 from 9. April 2015

EAC extraction logfile from 24. June 2015, 15:12

Ringo Starr / Postcards From Paradise

Used drive : ASUS SDRW-08D1S-U Adapter: 1 ID: 1

Read mode : Secure
Utilize accurate stream : Yes
Defeat audio cache : Yes
Make use of C2 pointers : No

Read offset correction : 667
Overread into Lead-In and Lead-Out : No
Fill up missing offset samples with silence : Yes
Delete leading and trailing silent blocks : No
Null samples used in CRC calculations : Yes
Used interface : Native Win32 interface for Win NT & 2000

Used output format : User Defined Encoder
Selected bitrate : 128 kBit/s
Quality : High
Add ID3 tag : No
Command line compressor : C:\Program Files (x86)\Exact Audio Copy\Flac\flac.exe
Additional command line options : -V -8 -T “Date=%year%” -T “Genre=%genre%” %source%

TOC of the extracted CD

Track | Start | Length | Start sector | End sector
———————————————————
1 | 0:00.00 | 4:10.72 | 0 | 18821
2 | 4:10.72 | 3:43.12 | 18822 | 35558
3 | 7:54.09 | 5:01.37 | 35559 | 58170
4 | 12:55.46 | 5:19.66 | 58171 | 82161
5 | 18:15.37 | 3:15.17 | 82162 | 96803
6 | 21:30.54 | 3:50.52 | 96804 | 114105
7 | 25:21.31 | 3:22.63 | 114106 | 129318
8 | 28:44.19 | 4:03.23 | 129319 | 147566
9 | 32:47.42 | 3:37.57 | 147567 | 163898
10 | 36:25.24 | 3:38.72 | 163899 | 180320
11 | 40:04.21 | 4:11.04 | 180321 | 199149

Range status and errors

Selected range

Filename C:\Users\Олег\Desktop\Ringo Starr\Ringo Starr – Postcards From Paradise.wav

Peak level 100.0 %
Extraction speed 3.7 X
Range quality 99.9 %
Test CRC C5DC69A6
Copy CRC C5DC69A6
Copy OK

No errors occurred

AccurateRip summary

Track 1 accurately ripped (confidence 19) [C85BCC0D] (AR v2)
Track 2 accurately ripped (confidence 19) [A83674EC] (AR v2)
Track 3 accurately ripped (confidence 19) [D71EC0F6] (AR v2)
Track 4 accurately ripped (confidence 19) [6CDDF236] (AR v2)
Track 5 accurately ripped (confidence 19) [D233CFE5] (AR v2)
Track 6 accurately ripped (confidence 19) [7796CFAC] (AR v2)
Track 7 accurately ripped (confidence 19) [D0220A7D] (AR v2)
Track 8 accurately ripped (confidence 19) [98145AFA] (AR v2)
Track 9 accurately ripped (confidence 19) [9B61560F] (AR v2)
Track 10 accurately ripped (confidence 19) [642C1813] (AR v2)
Track 11 accurately ripped (confidence 19) [079D4499] (AR v2)

All tracks accurately ripped

End of status report

—- CUETools DB Plugin V2.1.6

[CTDB TOCID: T083TAT4KYXJeNnpRT2DwRnjWAI-] found
Submit result: already submitted
Track | CTDB Status
1 | (48/48) Accurately ripped
2 | (48/48) Accurately ripped
3 | (48/48) Accurately ripped
4 | (48/48) Accurately ripped
5 | (48/48) Accurately ripped
6 | (48/48) Accurately ripped
7 | (48/48) Accurately ripped
8 | (48/48) Accurately ripped
9 | (48/48) Accurately ripped
10 | (48/48) Accurately ripped
11 | (48/48) Accurately ripped

==== Log checksum 040DD1835C674FD99F5A2F72FF59C9C9FDCA864A24A6E91EAEB2E668467D86EB ====

REM GENRE Rock
REM DATE 2015
REM DISCID A20A5F0B
REM COMMENT “ExactAudioCopy v1.0b6”
PERFORMER “Ringo Starr”
TITLE “Postcards From Paradise”
FILE “Ringo Starr – Postcards From Paradise.flac” WAVE
TRACK 01 AUDIO
TITLE “Rory And The Hurricanes”
PERFORMER “Ringo Starr”
INDEX 01 00:00:00
TRACK 02 AUDIO
TITLE “You Bring The Party Down”
PERFORMER “Ringo Starr”
INDEX 00 04:09:16
INDEX 01 04:10:72
TRACK 03 AUDIO
TITLE “Bridges”
PERFORMER “Ringo Starr”
INDEX 00 07:52:70
INDEX 01 07:54:09
TRACK 04 AUDIO
TITLE “Postcards From Paradise”
PERFORMER “Ringo Starr”
INDEX 00 12:55:25
INDEX 01 12:55:46
TRACK 05 AUDIO
TITLE “Right Side Of The Road”
PERFORMER “Ringo Starr”
INDEX 00 18:14:10
INDEX 01 18:15:37
TRACK 06 AUDIO
TITLE “Not Looking Back”
PERFORMER “Ringo Starr”
INDEX 00 21:28:01
INDEX 01 21:30:54
TRACK 07 AUDIO
TITLE “Bamboula”
PERFORMER “Ringo Starr”
INDEX 01 25:21:31
TRACK 08 AUDIO
TITLE “Island In The Sun”
PERFORMER “Ringo Starr”
INDEX 00 28:41:62
INDEX 01 28:44:19
TRACK 09 AUDIO
TITLE “Touch And Go”
PERFORMER “Ringo Starr”
INDEX 00 32:46:29
INDEX 01 32:47:42
TRACK 10 AUDIO
TITLE “Confirmation”
PERFORMER “Ringo Starr”
INDEX 00 36:23:46
INDEX 01 36:25:24
TRACK 11 AUDIO
TITLE “Let Love Lead”
PERFORMER “Ringo Starr”
INDEX 00 40:03:22
INDEX 01 40:04:21


Leave a Reply

Your email address will not be published. Required fields are marked *

Enter the text from the image below
 

This site uses Akismet to reduce spam. Learn how your comment data is processed.