Ringo Starr – Photograph: The Very Best Of Ringo




No Cover available

Artist: Ringo Starr
Year: 2007
Genre: Rock
Notes: Discogs
Add. Notes:
Watch Songs on: YouTube
Cover incl.: Yes
Encoder: FLAC
Bitrate: ~900 kBit/s (44.1 kHz/16 Bit/s)
Log & Cue incl.: Yes/Yes
Size: 513,3 MB
Password: “slam” (without ” “)


All Downloads/Hosters are compatible

Download 1
KatFile.com
Turbobit.net
Rapidgator.net
FileFactory.com
Download 2
KatFile.com
Turbobit.net
Rapidgator.net
FileFactory.com

Tracklist:

1 Photograph 3:58
2 It Don't Come Easy 3:01
3 You're Sixteen (You're Beautiful And You're Mine) 2:49
4 Back Off Boogaloo 3:19
5 I'm The Greatest 3:25
6 Oh, My My 4:14
7 Only You (And You Alone) 3:24
8 Beaucoups Of Blues 2:33
9 Early 1970 2:18
10 Snookeroo 3:23
11 No-No Song 2:31
12 (It's All Down To) Goodnight Vienna 3:02
13 Hey Baby 3:10
14 A Dose Of Rock 'N' Roll 3:24
15 Weight Of The World 3:54
16 King Of Broken Hearts 4:43
17 Never Without You 5:22
18 Act Naturally 3:00
19 Wrack My Brain 2:21
20 Fading In And Fading Out 3:58

EAC-Log, CUE-Sheed & NFO:

Click to open spoiler
Exact Audio Copy V0.99 prebeta 5 from 4. May 2009

Отчёт EAC об извлечении, выполненном 25. января 2015, 20:47

Ringo Starr / Photograph – The Very Best Of Ringo

Дисковод: SONY BD RW BDX-S500U Adapter: 1 ID: 0

Режим чтения : Достоверность
Использование точного потока : Да
Отключение кэша аудио : Да
Использование указателей C2 : Нет

Коррекция смещения при чтении : 48
Способность читать области Lead-in и Lead-out : Нет
Заполнение пропущенных сэмплов тишиной : Да
Удаление блоков с тишиной в начале и конце : Нет
При вычислениях CRC использовались нулевые сэмплы : Да
Интерфейс : Встроенный Win32-интерфейс для Win NT/2000

Выходной формат : Внутренние WAV-операции
Формат сэмплов : 44.100 Гц; 16 бит; стерео

TOC извлечённого CD

Трек | Старт | Длительность | Начальный сектор | Конечный сектор
———————————————————————
1 | 0:00.00 | 3:58.72 | 0 | 17921
2 | 3:58.72 | 3:01.67 | 17922 | 31563
3 | 7:00.64 | 2:49.58 | 31564 | 44296
4 | 9:50.47 | 3:19.64 | 44297 | 59285
5 | 13:10.36 | 3:26.01 | 59286 | 74736
6 | 16:36.37 | 4:15.09 | 74737 | 93870
7 | 20:51.46 | 3:24.23 | 93871 | 109193
8 | 24:15.69 | 2:33.45 | 109194 | 120713
9 | 26:49.39 | 2:18.72 | 120714 | 131135
10 | 29:08.36 | 3:24.14 | 131136 | 146449
11 | 32:32.50 | 2:31.68 | 146450 | 157842
12 | 35:04.43 | 3:02.17 | 157843 | 171509
13 | 38:06.60 | 3:10.50 | 171510 | 185809
14 | 41:17.35 | 3:24.23 | 185810 | 201132
15 | 44:41.58 | 3:54.37 | 201133 | 218719
16 | 48:36.20 | 4:43.61 | 218720 | 240005
17 | 53:20.06 | 5:23.19 | 240006 | 264249
18 | 58:43.25 | 3:00.26 | 264250 | 277775
19 | 61:43.51 | 2:21.50 | 277776 | 288400
20 | 64:05.26 | 3:58.52 | 288401 | 306302

Характеристики диапазона извлечения и сообщения об ошибках

Выбранный диапазон

Имя файла F:\Ringo_CDs\Photograph – The Very Best Of Ringo\Ringo Starr – Photograph – The Very Best Of Ringo.wav

Пиковый уровень 99.4 %
Качество диапазона 99.9 %
CRC теста 6303C54B
CRC копии 6303C54B
Копирование… OK

Ошибок не произошло

AccurateRip: сводка

Трек 1 точное извлечение (доверие 112) [B206CB2D]
Трек 2 точное извлечение (доверие 111) [506CF30C]
Трек 3 точное извлечение (доверие 111) [F932FF1F]
Трек 4 точное извлечение (доверие 109) [402F4AE5]
Трек 5 точное извлечение (доверие 104) [D75AC8F4]
Трек 6 точное извлечение (доверие 108) [85A0174B]
Трек 7 точное извлечение (доверие 106) [E704636D]
Трек 8 точное извлечение (доверие 104) [59C2A6FA]
Трек 9 точное извлечение (доверие 104) [F2754E69]
Трек 10 точное извлечение (доверие 105) [E08D664E]
Трек 11 точное извлечение (доверие 109) [FBEB7E61]
Трек 12 точное извлечение (доверие 104) [9F6740F0]
Трек 13 точное извлечение (доверие 104) [A61DC1DD]
Трек 14 точное извлечение (доверие 103) [523661B8]
Трек 15 точное извлечение (доверие 105) [DD8C8224]
Трек 16 точное извлечение (доверие 102) [E8E84FA8]
Трек 17 точное извлечение (доверие 98) [C06361CA]
Трек 18 точное извлечение (доверие 106) [C4A5FCCB]
Трек 19 точное извлечение (доверие 103) [96A551B0]
Трек 20 точное извлечение (доверие 99) [830D31EA]

Все треки извлечены точно

Конец отчёта

REM GENRE Rock
REM DATE 2007
REM DISCID 270FF414
REM COMMENT “ExactAudioCopy v0.99pb5”
PERFORMER “Ringo Starr”
TITLE “Photograph – The Very Best Of Ringo”
FILE “Ringo Starr – Photograph – The Very Best Of Ringo.flac” WAVE
TRACK 01 AUDIO
TITLE “Photograph”
PERFORMER “Ringo Starr”
INDEX 01 00:00:00
TRACK 02 AUDIO
TITLE “It Don’t Come Easy”
PERFORMER “Ringo Starr”
INDEX 00 03:58:26
INDEX 01 03:58:72
TRACK 03 AUDIO
TITLE “You’re Sixteen (You’re Beautiful And You’re Mine)”
PERFORMER “Ringo Starr”
INDEX 01 07:00:64
TRACK 04 AUDIO
TITLE “Back Off Boogaloo”
PERFORMER “Ringo Starr”
INDEX 01 09:50:47
TRACK 05 AUDIO
TITLE “I’m The Greatest”
PERFORMER “Ringo Starr”
INDEX 01 13:10:36
TRACK 06 AUDIO
TITLE “Oh, My My”
PERFORMER “Ringo Starr”
INDEX 01 16:36:37
TRACK 07 AUDIO
TITLE “Only You (And You Alone)”
PERFORMER “Ringo Starr”
INDEX 01 20:51:46
TRACK 08 AUDIO
TITLE “Beaucoups Of Blues”
PERFORMER “Ringo Starr”
INDEX 01 24:15:69
TRACK 09 AUDIO
TITLE “Early 1970”
PERFORMER “Ringo Starr”
INDEX 00 26:49:06
INDEX 01 26:49:39
TRACK 10 AUDIO
TITLE “Snookeroo”
PERFORMER “Ringo Starr”
INDEX 01 29:08:36
TRACK 11 AUDIO
TITLE “No-No Song”
PERFORMER “Ringo Starr”
INDEX 00 32:32:12
INDEX 01 32:32:50
TRACK 12 AUDIO
TITLE “(It’s All Down To) Good Night Vienna”
PERFORMER “Ringo Starr”
INDEX 01 35:04:43
TRACK 13 AUDIO
TITLE “Hey Baby”
PERFORMER “Ringo Starr”
INDEX 00 38:06:12
INDEX 01 38:06:60
TRACK 14 AUDIO
TITLE “A Dose Of Rock ‘N’ Roll”
PERFORMER “Ringo Starr”
INDEX 01 41:17:35
TRACK 15 AUDIO
TITLE “Weight Of The World”
PERFORMER “Ringo Starr”
INDEX 00 44:41:51
INDEX 01 44:41:58
TRACK 16 AUDIO
TITLE “King Of Broken Hearts”
PERFORMER “Ringo Starr”
INDEX 00 48:35:65
INDEX 01 48:36:20
TRACK 17 AUDIO
TITLE “Never Without You”
PERFORMER “Ringo Starr”
INDEX 00 53:19:72
INDEX 01 53:20:06
TRACK 18 AUDIO
TITLE “Act Naturally (Duet with Buck Owens)”
PERFORMER “Ringo Starr”
INDEX 00 58:42:73
INDEX 01 58:43:25
TRACK 19 AUDIO
TITLE “Wrack My Brain”
PERFORMER “Ringo Starr”
INDEX 01 61:43:51
TRACK 20 AUDIO
TITLE “Fading In And Fading Out”
PERFORMER “Ringo Starr”
INDEX 00 64:04:33
INDEX 01 64:05:26


Leave a Reply

Your email address will not be published. Required fields are marked *

Enter the text from the image below
 

This site uses Akismet to reduce spam. Learn how your comment data is processed.