Ringo Starr – Old Wave (Remastered)




No Cover available

Artist: Ringo Starr
Year: 1983/1994
Genre: Rock
Notes: Discogs
Add. Notes: Remastered
Watch Songs on: YouTube
Cover incl.: Yes
Encoder: FLAC
Bitrate: ~900 kBit/s (44.1 kHz/16 Bit/s)
Log & Cue incl.: Yes/Yes
Size: 294,2 MB
Password: “slam” (without ” “)


All Downloads/Hosters are compatible

Download 1
KatFile.com
Turbobit.net
Rapidgator.net
FileFactory.com
Download 2
KatFile.com
Turbobit.net
Rapidgator.net
FileFactory.com

Tracklist:

1 In My Car 
2 Hopeless 
3 Alibi 
4 Be My Baby 
5 She's About A Mover 
6 I Keep Forgettin' 
7 Picture Show Life 
8 As Far As We Can Go 
9 Everybody's In A Hurry But Me 
10 Going Down 
11 As Far As We Can Go (Original Version)

EAC-Log, CUE-Sheed & NFO:

Click to open spoiler
Exact Audio Copy V0.99 prebeta 5 from 4. May 2009

Отчёт EAC об извлечении, выполненном 25. января 2015, 19:38

Ringo Starr / Old Wave

Дисковод: SONY BD RW BDX-S500U Adapter: 1 ID: 0

Режим чтения : Достоверность
Использование точного потока : Да
Отключение кэша аудио : Да
Использование указателей C2 : Нет

Коррекция смещения при чтении : 48
Способность читать области Lead-in и Lead-out : Нет
Заполнение пропущенных сэмплов тишиной : Да
Удаление блоков с тишиной в начале и конце : Нет
При вычислениях CRC использовались нулевые сэмплы : Да
Интерфейс : Встроенный Win32-интерфейс для Win NT/2000

Выходной формат : Внутренние WAV-операции
Формат сэмплов : 44.100 Гц; 16 бит; стерео

TOC извлечённого CD

Трек | Старт | Длительность | Начальный сектор | Конечный сектор
———————————————————————
1 | 0:00.00 | 3:13.57 | 0 | 14531
2 | 3:13.57 | 3:19.33 | 14532 | 29489
3 | 6:33.15 | 4:02.07 | 29490 | 47646
4 | 10:35.22 | 3:48.10 | 47647 | 64756
5 | 14:23.32 | 3:54.15 | 64757 | 82321
6 | 18:17.47 | 4:20.58 | 82322 | 101879
7 | 22:38.30 | 4:18.62 | 101880 | 121291
8 | 26:57.17 | 3:51.28 | 121292 | 138644
9 | 30:48.45 | 2:34.07 | 138645 | 150201
10 | 33:22.52 | 3:35.18 | 150202 | 166344
11 | 36:57.70 | 5:33.60 | 166345 | 191379

Характеристики диапазона извлечения и сообщения об ошибках

Выбранный диапазон

Имя файла F:\Ringo_CDs\Old Wave\Ringo Starr – Old Wave.wav

Пиковый уровень 94.1 %
Качество диапазона 100.0 %
CRC теста F3C6CD08
CRC копии F3C6CD08
Копирование… OK

Ошибок не произошло

AccurateRip: сводка

Трек 1 точное извлечение (доверие 5) [271E2445]
Трек 2 точное извлечение (доверие 5) [77610DB2]
Трек 3 точное извлечение (доверие 5) [BF852684]
Трек 4 точное извлечение (доверие 5) [7146B336]
Трек 5 точное извлечение (доверие 5) [C76D35FA]
Трек 6 точное извлечение (доверие 5) [CC7AB7B3]
Трек 7 точное извлечение (доверие 5) [DC0C4FDE]
Трек 8 точное извлечение (доверие 5) [F847D9D4]
Трек 9 точное извлечение (доверие 5) [829BC269]
Трек 10 точное извлечение (доверие 5) [BE6411B6]
Трек 11 точное извлечение (доверие 5) [CA232269]

Все треки извлечены точно

Конец отчёта

REM GENRE Rock
REM DATE 1994
REM DISCID 9509F70B
REM COMMENT “ExactAudioCopy v0.99pb5”
PERFORMER “Ringo Starr”
TITLE “Old Wave”
FILE “Ringo Starr – Old Wave.flac” WAVE
TRACK 01 AUDIO
TITLE “In My Car”
PERFORMER “Ringo Starr”
INDEX 01 00:00:00
TRACK 02 AUDIO
TITLE “Hopeless”
PERFORMER “Ringo Starr”
INDEX 00 03:12:62
INDEX 01 03:13:57
TRACK 03 AUDIO
TITLE “Alibi”
PERFORMER “Ringo Starr”
INDEX 00 06:32:47
INDEX 01 06:33:15
TRACK 04 AUDIO
TITLE “Be My Baby”
PERFORMER “Ringo Starr”
INDEX 00 10:34:70
INDEX 01 10:35:22
TRACK 05 AUDIO
TITLE “She’s About A Mover”
PERFORMER “Ringo Starr”
INDEX 00 14:23:10
INDEX 01 14:23:32
TRACK 06 AUDIO
TITLE “I Keep Forgettin'”
PERFORMER “Ringo Starr”
INDEX 00 18:16:57
INDEX 01 18:17:47
TRACK 07 AUDIO
TITLE “Picture Show Line”
PERFORMER “Ringo Starr”
INDEX 00 22:37:55
INDEX 01 22:38:30
TRACK 08 AUDIO
TITLE “As Far As We Can Go”
PERFORMER “Ringo Starr”
INDEX 00 26:55:70
INDEX 01 26:57:17
TRACK 09 AUDIO
TITLE “Everybody’s In A Hurry But Me”
PERFORMER “Ringo Starr”
INDEX 00 30:47:65
INDEX 01 30:48:45
TRACK 10 AUDIO
TITLE “Going Down”
PERFORMER “Ringo Starr”
INDEX 00 33:22:17
INDEX 01 33:22:52
TRACK 11 AUDIO
TITLE “As Far As We Can Go (Original Version)”
PERFORMER “Ringo Starr”
INDEX 00 36:56:47
INDEX 01 36:57:70


Leave a Reply

Your email address will not be published. Required fields are marked *

Enter the text from the image below
 

This site uses Akismet to reduce spam. Learn how your comment data is processed.