Ringo Starr – I Wanna Be Santa Claus




No Cover available

Artist: Ringo Starr
Year: 1999
Genre: Rock
Notes: Discogs
Add. Notes:
Watch Songs on: YouTube
Cover incl.: Yes
Encoder: FLAC
Bitrate: ~1000 kBit/s (44.1 kHz/16 Bit/s)
Log & Cue incl.: Yes/Yes
Size: 356,9 MB
Password: “slam” (without ” “)


All Downloads/Hosters are compatible

Download 1
KatFile.com
Turbobit.net
FileFactory.com
Rapidgator.net
Download 2
KatFile.com
Turbobit.net
FileFactory.com
Rapidgator.net

Tracklist:

1 Come On Christmas, Christmas Come On 3:35
2 Winter Wonderland 2:54
3 I Wanna Be Santa Claus 3:46
4 The Little Drummer Boy 3:21
5 Rudolph The Red-Nosed Reindeer 2:23
6 Christmas Eve 4:26
7 The Christmas Dance 4:12
8 Christmas Time Is Here Again 4:05
9 Blue Christmas 2:58
10 Dear Santa 5:14
11 White Christmas 3:14
12 Pax Um Biscum (Peace Be With You) 4:45

EAC-Log, CUE-Sheed & NFO:

Click to open spoiler
Exact Audio Copy V1.2 from 12. August 2016

EAC extraction logfile from 29. March 2017, 20:10

Ringo Starr / I Wanna Be Santa Claus

Used drive : ASUS SDRW-08D1S-U Adapter: 1 ID: 2

Read mode : Secure
Utilize accurate stream : Yes
Defeat audio cache : Yes
Make use of C2 pointers : No

Read offset correction : 667
Overread into Lead-In and Lead-Out : No
Fill up missing offset samples with silence : Yes
Delete leading and trailing silent blocks : No
Null samples used in CRC calculations : Yes
Used interface : Native Win32 interface for Win NT & 2000

Used output format : User Defined Encoder
Selected bitrate : 128 kBit/s
Quality : High
Add ID3 tag : No
Command line compressor : C:\Program Files (x86)\Exact Audio Copy\Flac\flac.exe
Additional command line options : -V -8 -T “Date=%year%” -T “Genre=%genre%” %source%

TOC of the extracted CD

Track | Start | Length | Start sector | End sector
———————————————————
1 | 0:00.00 | 3:35.52 | 0 | 16176
2 | 3:35.52 | 2:54.45 | 16177 | 29271
3 | 6:30.22 | 3:45.73 | 29272 | 46219
4 | 10:16.20 | 3:21.47 | 46220 | 61341
5 | 13:37.67 | 2:23.13 | 61342 | 72079
6 | 16:01.05 | 4:26.20 | 72080 | 92049
7 | 20:27.25 | 4:12.72 | 92050 | 111021
8 | 24:40.22 | 4:05.68 | 111022 | 129464
9 | 28:46.15 | 2:58.32 | 129465 | 142846
10 | 31:44.47 | 5:14.70 | 142847 | 166466
11 | 36:59.42 | 3:14.28 | 166467 | 181044
12 | 40:13.70 | 4:45.65 | 181045 | 202484

Range status and errors

Selected range

Filename C:\Users\Олег\Desktop\Ringo Starr – I Wanna Be Santa Claus\Ringo Starr – I Wanna Be Santa Claus.wav

Peak level 99.9 %
Extraction speed 3.7 X
Range quality 100.0 %
Test CRC CF1798C3
Copy CRC CF1798C3
Copy OK

No errors occurred

AccurateRip summary

Track 1 accurately ripped (confidence 14) [2ABAC1B0] (AR v2)
Track 2 accurately ripped (confidence 14) [5FA61BAC] (AR v2)
Track 3 accurately ripped (confidence 15) [6703A147] (AR v2)
Track 4 accurately ripped (confidence 14) [AE8616B0] (AR v2)
Track 5 accurately ripped (confidence 14) [F510BE91] (AR v2)
Track 6 accurately ripped (confidence 14) [F9B20BE4] (AR v2)
Track 7 accurately ripped (confidence 14) [B1CB9E29] (AR v2)
Track 8 accurately ripped (confidence 14) [3F0AC7C4] (AR v2)
Track 9 accurately ripped (confidence 14) [5D40D36A] (AR v2)
Track 10 accurately ripped (confidence 14) [BB283667] (AR v2)
Track 11 accurately ripped (confidence 14) [179F3FE7] (AR v2)
Track 12 accurately ripped (confidence 14) [7FB6C5B7] (AR v2)

All tracks accurately ripped

End of status report

—- CUETools DB Plugin V2.1.6

[CTDB TOCID: uvwiSrzj4NF.1j.xc4Ky2rPLOQE-] found
Submit result: uvwiSrzj4NF.1j.xc4Ky2rPLOQE- has been confirmed
Track | CTDB Status
1 | (36/37) Accurately ripped
2 | (36/37) Accurately ripped
3 | (36/37) Accurately ripped
4 | (37/37) Accurately ripped
5 | (37/37) Accurately ripped
6 | (37/37) Accurately ripped
7 | (37/37) Accurately ripped
8 | (37/37) Accurately ripped
9 | (37/37) Accurately ripped
10 | (37/37) Accurately ripped
11 | (37/37) Accurately ripped
12 | (37/37) Accurately ripped

==== Log checksum 07D5627699695F855B56DC132E9EC5EF89FCB347CFAA4792D5D3BD52486DF065 ====

REM GENRE Rock
REM DATE 1999
REM DISCID 9F0A8B0C
REM COMMENT “ExactAudioCopy v1.2”
PERFORMER “Ringo Starr”
TITLE “I Wanna Be Santa Claus”
REM COMPOSER “”
FILE “Ringo Starr – I Wanna Be Santa Claus.flac” WAVE
TRACK 01 AUDIO
TITLE “Come on Christmas, Christmas Come On ”
PERFORMER “Ringo Starr”
REM COMPOSER “”
INDEX 01 00:00:00
TRACK 02 AUDIO
TITLE “Winter Wonderland ”
PERFORMER “Ringo Starr”
REM COMPOSER “”
INDEX 01 03:35:52
TRACK 03 AUDIO
TITLE “I Wanna Be Santa Claus ”
PERFORMER “Ringo Starr”
REM COMPOSER “”
INDEX 01 06:30:22
TRACK 04 AUDIO
TITLE “The Little Drummer Boy ”
PERFORMER “Ringo Starr”
REM COMPOSER “”
INDEX 01 10:16:20
TRACK 05 AUDIO
TITLE “Rudolph the Red-Nosed Reindeer”
PERFORMER “Ringo Starr”
REM COMPOSER “”
INDEX 00 13:35:32
INDEX 01 13:37:67
TRACK 06 AUDIO
TITLE “Christmas Eve ”
PERFORMER “Ringo Starr”
REM COMPOSER “”
INDEX 00 15:58:52
INDEX 01 16:01:05
TRACK 07 AUDIO
TITLE “The Christmas Dance ”
PERFORMER “Ringo Starr”
REM COMPOSER “”
INDEX 01 20:27:25
TRACK 08 AUDIO
TITLE “Christmas Time Is Here Again ”
PERFORMER “Ringo Starr”
REM COMPOSER “”
INDEX 00 24:33:40
INDEX 01 24:40:22
TRACK 09 AUDIO
TITLE “Blue Christmas”
PERFORMER “Ringo Starr”
REM COMPOSER “”
INDEX 01 28:46:15
TRACK 10 AUDIO
TITLE “Dear Santa ”
PERFORMER “Ringo Starr”
REM COMPOSER “”
INDEX 01 31:44:47
TRACK 11 AUDIO
TITLE “White Christmas ”
PERFORMER “Ringo Starr”
REM COMPOSER “”
INDEX 00 36:56:62
INDEX 01 36:59:42
TRACK 12 AUDIO
TITLE “Pax Um Biscum (Peace be with You) ”
PERFORMER “Ringo Starr”
REM COMPOSER “”
INDEX 00 39:56:02
INDEX 01 40:13:70


Leave a Reply

Your email address will not be published. Required fields are marked *

This site uses Akismet to reduce spam. Learn how your comment data is processed.