Ringo Starr – Give More Love




Artist: Ringo Starr
Year: 2017
Genre: Rock
Notes: Discogs
Add. Notes:
Cover incl.: Yes
Encoder: FLAC
Bitrate: ~900 kBit/s (44.1 kHz/16 Bit/s)
Log & Cue incl.: Yes/Yes
Size: 359,17 MB
Password: “slam” (without ” “)


All Downloads/Hosters are compatible

Download 1
KatFile.com
Turbobit.net
FileFactory.com
Rapidgator.net
Download 2
KatFile.com
Turbobit.net
FileFactory.com
Rapidgator.net

Tracklist:

1 We're On The Road Again 4:24
2 Laughable 2:58
3 Show The Way 4:42
4 Speed Of Sound 3:46
5 Standing Still 3:06
6 King Of The Kingdom 4:36
7 Electricity 3:38
8 So Wrong For So Long 4:08
9 Shake It Up 3:02
10 Give More Love 4:01
11 Back Off Boogaloo 2:55
12 Don't Pass Me By 3:38
13 You Can't Fight Lightning 4:21
14 Photograph 3:35

EAC-Log, CUE-Sheed & NFO:

Click to open spoiler
Exact Audio Copy V1.2 from 12. August 2016

EAC extraction logfile from 28. September 2017, 14:48

Ringo Starr / Give More Love

Used drive : ASUS SDRW-08D1S-U Adapter: 1 ID: 1

Read mode : Secure
Utilize accurate stream : Yes
Defeat audio cache : Yes
Make use of C2 pointers : No

Read offset correction : 667
Overread into Lead-In and Lead-Out : No
Fill up missing offset samples with silence : Yes
Delete leading and trailing silent blocks : No
Null samples used in CRC calculations : Yes
Used interface : Native Win32 interface for Win NT & 2000

Used output format : User Defined Encoder
Selected bitrate : 128 kBit/s
Quality : High
Add ID3 tag : No
Command line compressor : C:\Program Files (x86)\Exact Audio Copy\Flac\flac.exe
Additional command line options : -V -8 -T “Date=%year%” -T “Genre=%genre%” %source%

TOC of the extracted CD

Track | Start | Length | Start sector | End sector
———————————————————
1 | 0:00.00 | 4:23.39 | 0 | 19763
2 | 4:23.39 | 2:58.35 | 19764 | 33148
3 | 7:21.74 | 4:42.14 | 33149 | 54312
4 | 12:04.13 | 3:45.47 | 54313 | 71234
5 | 15:49.60 | 3:06.12 | 71235 | 85196
6 | 18:55.72 | 4:35.44 | 85197 | 105865
7 | 23:31.41 | 3:38.13 | 105866 | 122228
8 | 27:09.54 | 4:02.54 | 122229 | 140432
9 | 31:12.33 | 3:01.49 | 140433 | 154056
10 | 34:14.07 | 4:00.63 | 154057 | 172119
11 | 38:14.70 | 2:55.00 | 172120 | 185244
12 | 41:09.70 | 3:37.70 | 185245 | 201589
13 | 44:47.65 | 4:21.19 | 201590 | 221183
14 | 49:09.09 | 3:35.25 | 221184 | 237333

Range status and errors

Selected range

Filename C:\Users\????\Desktop\Ringo Starr-Give More Love\Ringo Starr – Give More Love.wav

Peak level 100.0 %
Extraction speed 3.8 X
Range quality 100.0 %
Test CRC 91AA6DB0
Copy CRC 91AA6DB0
Copy OK

No errors occurred

AccurateRip summary

Track 1 accurately ripped (confidence 1) [BDAEDDC7] (AR v2)
Track 2 accurately ripped (confidence 1) [940E5075] (AR v2)
Track 3 accurately ripped (confidence 1) [A787EB19] (AR v2)
Track 4 accurately ripped (confidence 1) [C00C359F] (AR v2)
Track 5 accurately ripped (confidence 1) [7EBDD2DA] (AR v2)
Track 6 accurately ripped (confidence 1) [D1CE2137] (AR v2)
Track 7 accurately ripped (confidence 1) [27DD2726] (AR v2)
Track 8 accurately ripped (confidence 1) [3BCDAEDE] (AR v2)
Track 9 accurately ripped (confidence 1) [E4D80F1E] (AR v2)
Track 10 accurately ripped (confidence 1) [59485A9F] (AR v2)
Track 11 accurately ripped (confidence 1) [0F5CD95B] (AR v2)
Track 12 accurately ripped (confidence 1) [B254FA04] (AR v2)
Track 13 accurately ripped (confidence 1) [D00D812B] (AR v2)
Track 14 accurately ripped (confidence 1) [85F56F65] (AR v2)

All tracks accurately ripped

End of status report

—- CUETools DB Plugin V2.1.6

[CTDB TOCID: jlfjnhChBtwYBE6po4hEBqAZVio-] found
Submit result: jlfjnhChBtwYBE6po4hEBqAZVio- has been confirmed
Track | CTDB Status
1 | (22/22) Accurately ripped
2 | (22/22) Accurately ripped
3 | (22/22) Accurately ripped
4 | (22/22) Accurately ripped
5 | (22/22) Accurately ripped
6 | (22/22) Accurately ripped
7 | (22/22) Accurately ripped
8 | (22/22) Accurately ripped
9 | (22/22) Accurately ripped
10 | (22/22) Accurately ripped
11 | (22/22) Accurately ripped
12 | (22/22) Accurately ripped
13 | (22/22) Accurately ripped
14 | (21/22) Accurately ripped

==== Log checksum FD5E10AC5B574620502B8FD38B239A389AD58379BD97CD65C1BF9D9724A8BAED ====

REM GENRE Rock
REM DATE 2017
REM DISCID C40C5C0E
REM COMMENT “ExactAudioCopy v1.2”
PERFORMER “Ringo Starr”
TITLE “Give More Love”
REM COMPOSER “”
FILE “Ringo Starr – Give More Love.flac” WAVE
TRACK 01 AUDIO
TITLE “We’re On The Road Again ”
PERFORMER “Ringo Starr”
REM COMPOSER “”
INDEX 01 00:00:00
TRACK 02 AUDIO
TITLE “Laughable”
PERFORMER “Ringo Starr”
REM COMPOSER “”
INDEX 00 04:21:17
INDEX 01 04:23:39
TRACK 03 AUDIO
TITLE “Show Me The Way ”
PERFORMER “Ringo Starr”
REM COMPOSER “”
INDEX 00 07:20:40
INDEX 01 07:21:74
TRACK 04 AUDIO
TITLE “Speed Of Sound ”
PERFORMER “Ringo Starr”
REM COMPOSER “”
INDEX 00 12:03:32
INDEX 01 12:04:13
TRACK 05 AUDIO
TITLE “Standing Still ”
PERFORMER “Ringo Starr”
REM COMPOSER “”
INDEX 00 15:48:65
INDEX 01 15:49:60
TRACK 06 AUDIO
TITLE “King Of The Kingdom ”
PERFORMER “Ringo Starr”
REM COMPOSER “”
INDEX 00 18:54:72
INDEX 01 18:55:72
TRACK 07 AUDIO
TITLE “Electricity”
PERFORMER “Ringo Starr”
REM COMPOSER “”
INDEX 00 23:31:20
INDEX 01 23:31:41
TRACK 08 AUDIO
TITLE “So Wrong For So Long ”
PERFORMER “Ringo Starr”
REM COMPOSER “”
INDEX 00 27:08:58
INDEX 01 27:09:54
TRACK 09 AUDIO
TITLE “Shake It Up ”
PERFORMER “Ringo Starr”
REM COMPOSER “”
INDEX 00 31:11:65
INDEX 01 31:12:33
TRACK 10 AUDIO
TITLE “Give More Love ”
PERFORMER “Ringo Starr”
REM COMPOSER “”
INDEX 00 34:12:72
INDEX 01 34:14:07
TRACK 11 AUDIO
TITLE “Back Off Boogaloo ”
PERFORMER “Ringo Starr”
REM COMPOSER “”
INDEX 00 38:14:47
INDEX 01 38:14:70
TRACK 12 AUDIO
TITLE “Don’t Pass Me By ”
PERFORMER “Ringo Starr”
REM COMPOSER “”
INDEX 00 41:07:71
INDEX 01 41:09:70
TRACK 13 AUDIO
TITLE “You Can’t Fight Lighting”
PERFORMER “Ringo Starr”
REM COMPOSER “”
INDEX 00 44:46:46
INDEX 01 44:47:65
TRACK 14 AUDIO
TITLE “Photograph”
PERFORMER “Ringo Starr”
REM COMPOSER “”
INDEX 00 49:08:49
INDEX 01 49:09:09


Leave a Reply

Your email address will not be published. Required fields are marked *

This site uses Akismet to reduce spam. Learn how your comment data is processed.