Ringo Starr – Extended Versions – The Encore Collection




No Cover available

Artist: Ringo Starr
Year: 2003
Genre: Rock
Notes: Discogs
Add. Notes:
Watch Songs on: YouTube
Cover incl.: Yes
Encoder: FLAC
Bitrate: ~1000 kBit/s (44.1 kHz/16 Bit/s)
Log & Cue incl.: Yes/Yes
Size: 306,3 MB
Password: “slam” (without ” “)


All Downloads/Hosters are compatible

Download 1
KatFile.com
Turbobit.net
Rapidgator.net
FileFactory.com
Download 2
KatFile.com
Turbobit.net
Rapidgator.net
FileFactory.com

Tracklist:

1 Yellow Submarine 2:54
2 Karn Evil 9 5:28
3 It Don't Come Easy 2:56
4 I Still Love Rock N' Roll 4:34
5 Act Naturally 2:28
6 Photograph 3:40
7 Love Bizarre 4:03
8 With A Little Help From My Friends 4:58
9 Everlasting Love 5:11
10 Glamorous Life 5:08

EAC-Log, CUE-Sheed & NFO:

Click to open spoiler
Exact Audio Copy V1.2 from 12. August 2016

EAC extraction logfile from 27. October 2017, 11:34

Ringo Starr & His All Starr Band / Extended Versions

Used drive : ASUS SDRW-08D1S-U Adapter: 1 ID: 1

Read mode : Secure
Utilize accurate stream : Yes
Defeat audio cache : Yes
Make use of C2 pointers : No

Read offset correction : 667
Overread into Lead-In and Lead-Out : No
Fill up missing offset samples with silence : Yes
Delete leading and trailing silent blocks : No
Null samples used in CRC calculations : Yes
Used interface : Native Win32 interface for Win NT & 2000

Used output format : User Defined Encoder
Selected bitrate : 128 kBit/s
Quality : High
Add ID3 tag : No
Command line compressor : C:\Program Files (x86)\Exact Audio Copy\Flac\flac.exe
Additional command line options : -V -8 -T “Date=%year%” -T “Genre=%genre%” %source%

TOC of the extracted CD

Track | Start | Length | Start sector | End sector
———————————————————
1 | 0:00.00 | 2:57.30 | 0 | 13304
2 | 2:57.30 | 5:30.62 | 13305 | 38116
3 | 8:28.17 | 2:56.05 | 38117 | 51321
4 | 11:24.22 | 4:35.53 | 51322 | 71999
5 | 16:00.00 | 2:29.72 | 72000 | 83246
6 | 18:29.72 | 3:41.70 | 83247 | 99891
7 | 22:11.67 | 4:05.18 | 99892 | 118284
8 | 26:17.10 | 4:59.55 | 118285 | 140764
9 | 31:16.65 | 5:13.30 | 140765 | 164269
10 | 36:30.20 | 5:09.02 | 164270 | 187446

Range status and errors

Selected range

Filename C:\Users\Олег\Desktop\Ringo Starr – Extended Versions\Ringo Starr & His All Starr Band – Extended Versions.wav

Peak level 100.0 %
Extraction speed 3.5 X
Range quality 99.9 %
Test CRC CC968C4E
Copy CRC CC968C4E
Copy OK

No errors occurred

AccurateRip summary

Track 1 accurately ripped (confidence 2) [94DF5E17] (AR v2)
Track 2 accurately ripped (confidence 2) [A7BBAB16] (AR v2)
Track 3 accurately ripped (confidence 2) [612982BD] (AR v2)
Track 4 accurately ripped (confidence 2) [46F72E77] (AR v2)
Track 5 accurately ripped (confidence 2) [AFFD4B0C] (AR v2)
Track 6 accurately ripped (confidence 2) [21EF521D] (AR v2)
Track 7 accurately ripped (confidence 2) [D44A20A6] (AR v2)
Track 8 accurately ripped (confidence 2) [8AF093D2] (AR v2)
Track 9 accurately ripped (confidence 2) [FF485E6E] (AR v2)
Track 10 accurately ripped (confidence 2) [3C7C8683] (AR v2)

All tracks accurately ripped

End of status report

—- CUETools DB Plugin V2.1.6

[CTDB TOCID: qdvp.PUBX6aG_hh0LHAOoZWffVU-] found
Submit result: qdvp.PUBX6aG_hh0LHAOoZWffVU- has been confirmed
Track | CTDB Status
1 | (15/15) Accurately ripped
2 | (14/15) Accurately ripped
3 | (15/15) Accurately ripped
4 | (15/15) Accurately ripped
5 | (15/15) Accurately ripped
6 | (15/15) Accurately ripped
7 | (15/15) Accurately ripped
8 | (15/15) Accurately ripped
9 | (15/15) Accurately ripped
10 | (15/15) Accurately ripped

==== Log checksum 1231E0DC7533FC46B2498488101F5EBBA36306F7CBF1132A6495DC281AD4C276 ====

REM GENRE Rock
REM DATE 2003
REM DISCID 8809C30A
REM COMMENT “ExactAudioCopy v1.2”
PERFORMER “Ringo Starr & His All Starr Band”
TITLE “Extended Versions”
REM COMPOSER “”
FILE “Ringo Starr & His All Starr Band – Extended Versions.flac” WAVE
TRACK 01 AUDIO
TITLE “Yellow Submarine”
PERFORMER “Ringo Starr & His All Starr Band”
REM COMPOSER “”
INDEX 01 00:00:00
TRACK 02 AUDIO
TITLE “Karn Evil 9 – featuring Greg Lake”
PERFORMER “Ringo Starr & His All Starr Band”
REM COMPOSER “”
INDEX 00 02:55:25
INDEX 01 02:57:30
TRACK 03 AUDIO
TITLE “It Don’t Come Easy”
PERFORMER “Ringo Starr & His All Starr Band”
REM COMPOSER “”
INDEX 00 08:26:10
INDEX 01 08:28:17
TRACK 04 AUDIO
TITLE “I Still Love Rock N’ Roll – featuring Ian Hunter”
PERFORMER “Ringo Starr & His All Starr Band”
REM COMPOSER “”
INDEX 00 11:22:12
INDEX 01 11:24:22
TRACK 05 AUDIO
TITLE “Act Naturally”
PERFORMER “Ringo Starr & His All Starr Band”
REM COMPOSER “”
INDEX 00 15:58:57
INDEX 01 16:00:00
TRACK 06 AUDIO
TITLE “Photograph”
PERFORMER “Ringo Starr & His All Starr Band”
REM COMPOSER “”
INDEX 00 18:27:54
INDEX 01 18:29:72
TRACK 07 AUDIO
TITLE “Love Bizarre – featuring Sheila E.”
PERFORMER “Ringo Starr & His All Starr Band”
REM COMPOSER “”
INDEX 00 22:10:20
INDEX 01 22:11:67
TRACK 08 AUDIO
TITLE “With A Little Help From My Friends”
PERFORMER “Ringo Starr & His All Starr Band”
REM COMPOSER “”
INDEX 00 26:15:00
INDEX 01 26:17:10
TRACK 09 AUDIO
TITLE “Everlasting Love – featuring Howard Jones”
PERFORMER “Ringo Starr & His All Starr Band”
REM COMPOSER “”
INDEX 00 31:15:22
INDEX 01 31:16:65
TRACK 10 AUDIO
TITLE “Glamorous Life – featuring Sheila E.”
PERFORMER “Ringo Starr & His All Starr Band”
REM COMPOSER “”
INDEX 00 36:28:07
INDEX 01 36:30:20


Leave a Reply

Your email address will not be published. Required fields are marked *

Enter the text from the image below
 

This site uses Akismet to reduce spam. Learn how your comment data is processed.