Ringo Starr – Choose Love




No Cover available


Artist: Ringo Starr
Year: 2005
Genre: Rock
Notes: Discogs
Add. Notes:
Watch Songs on: YouTube
Cover incl.: Yes
Encoder: FLAC
Bitrate: ~1000 kBit/s (44.1 kHz/16 Bit/s)
Log & Cue incl.: Yes/Yes
Size: 338,4 MB
Password: “slam” (without ” “)


All Downloads/Hosters are compatible

Download 1
KatFile.com
Turbobit.net
Rapidgator.net
FileFactory.com
Download 2
KatFile.com
Turbobit.net
Rapidgator.net
FileFactory.com

Tracklist:

1 Fading In Fading Out 3:55
2 Give Me Back The Beat 3:53
3 Oh My Lord 5:32
4 Hard To Be True 3:27
5 Some People 3:17
6 Wrong All The Time 3:30
7 Don't Hang Up 3:27
8 Choose Love 3:07
9 Me And You 2:15
10 Satisfied 3:19
11 The Turnaround 3:54
12 Free Drinks 4:45

EAC-Log, CUE-Sheed & NFO:

Click to open spoiler
Exact Audio Copy V1.0 beta 6 from 9. April 2015

EAC extraction logfile from 20. June 2015, 19:09

Ringo Starr / Choose Love

Used drive : ASUS SDRW-08D1S-U Adapter: 1 ID: 1

Read mode : Secure
Utilize accurate stream : Yes
Defeat audio cache : Yes
Make use of C2 pointers : No

Read offset correction : 667
Overread into Lead-In and Lead-Out : No
Fill up missing offset samples with silence : Yes
Delete leading and trailing silent blocks : No
Null samples used in CRC calculations : Yes
Used interface : Native Win32 interface for Win NT & 2000

Used output format : User Defined Encoder
Selected bitrate : 128 kBit/s
Quality : High
Add ID3 tag : No
Command line compressor : C:\Program Files (x86)\Exact Audio Copy\Flac\flac.exe
Additional command line options : -V -8 -T “Date=%year%” -T “Genre=%genre%” %source%

TOC of the extracted CD

Track | Start | Length | Start sector | End sector
———————————————————
1 | 0:00.00 | 3:57.00 | 0 | 17774
2 | 3:57.00 | 3:54.26 | 17775 | 35350
3 | 7:51.26 | 5:32.34 | 35351 | 60284
4 | 13:23.60 | 3:27.52 | 60285 | 75861
5 | 16:51.37 | 3:18.11 | 75862 | 90722
6 | 20:09.48 | 3:39.38 | 90723 | 107185
7 | 23:49.11 | 3:27.35 | 107186 | 122745
8 | 27:16.46 | 3:07.59 | 122746 | 136829
9 | 30:24.30 | 2:15.01 | 136830 | 146955
10 | 32:39.31 | 3:19.06 | 146956 | 161886
11 | 35:58.37 | 3:54.29 | 161887 | 179465
12 | 39:52.66 | 4:46.70 | 179466 | 200985

Range status and errors

Selected range

Filename C:\Users\Олег\Desktop\Choose Love\Ringo Starr – Choose Love.wav

Peak level 99.9 %
Extraction speed 3.7 X
Range quality 100.0 %
Test CRC 0622CFA9
Copy CRC 0622CFA9
Copy OK

No errors occurred

AccurateRip summary

Track 1 accurately ripped (confidence 8) [7033EC5C] (AR v2)
Track 2 accurately ripped (confidence 8) [89A01D00] (AR v2)
Track 3 accurately ripped (confidence 8) [C2383467] (AR v2)
Track 4 accurately ripped (confidence 7) [183D8D5C] (AR v2)
Track 5 accurately ripped (confidence 8) [736CBE2E] (AR v2)
Track 6 accurately ripped (confidence 8) [36B188CB] (AR v2)
Track 7 accurately ripped (confidence 8) [1C710BD1] (AR v2)
Track 8 accurately ripped (confidence 8) [C37D003A] (AR v2)
Track 9 accurately ripped (confidence 8) [5C42B79F] (AR v2)
Track 10 accurately ripped (confidence 8) [A71486CF] (AR v2)
Track 11 accurately ripped (confidence 8) [6E392382] (AR v2)
Track 12 accurately ripped (confidence 8) [5D5FD726] (AR v2)

All tracks accurately ripped

End of status report

—- CUETools DB Plugin V2.1.6

[CTDB TOCID: 4WNHKxjbOX4mJYz1K0DxHqEYaWA-] found
Submit result: 4WNHKxjbOX4mJYz1K0DxHqEYaWA- has been confirmed
Track | CTDB Status
1 | ( 9/10) Accurately ripped
2 | (10/10) Accurately ripped
3 | (10/10) Accurately ripped
4 | (10/10) Accurately ripped
5 | (10/10) Accurately ripped
6 | (10/10) Accurately ripped
7 | (10/10) Accurately ripped
8 | (10/10) Accurately ripped
9 | (10/10) Accurately ripped
10 | (10/10) Accurately ripped
11 | (10/10) Accurately ripped
12 | (10/10) Accurately ripped

==== Log checksum EF58D3AF1DE1FE746EC839D1285988C29701654009E6147E98436E3BE9A82332 ====

REM GENRE Rock
REM DATE 2005
REM DISCID 8D0A770C
REM COMMENT “ExactAudioCopy v1.0b6”
PERFORMER “Ringo Starr”
TITLE “Choose Love”
FILE “Ringo Starr – Choose Love.flac” WAVE
TRACK 01 AUDIO
TITLE “Fading In Fading Out”
PERFORMER “Ringo Starr”
FLAGS DCP
INDEX 01 00:00:00
TRACK 02 AUDIO
TITLE “Give Me Back The Beat”
PERFORMER “Ringo Starr”
FLAGS DCP
INDEX 01 03:57:00
TRACK 03 AUDIO
TITLE “Oh My Lord”
PERFORMER “Ringo Starr”
FLAGS DCP
INDEX 01 07:51:26
TRACK 04 AUDIO
TITLE “Hard To Be True”
PERFORMER “Ringo Starr”
FLAGS DCP
INDEX 01 13:23:60
TRACK 05 AUDIO
TITLE “Some People”
PERFORMER “Ringo Starr”
FLAGS DCP
INDEX 01 16:51:37
TRACK 06 AUDIO
TITLE “Wrong All The Time”
PERFORMER “Ringo Starr”
FLAGS DCP
INDEX 01 20:09:48
TRACK 07 AUDIO
TITLE “Don’t Hang Up”
PERFORMER “Ringo Starr”
FLAGS DCP
INDEX 01 23:49:11
TRACK 08 AUDIO
TITLE “Choose Love”
PERFORMER “Ringo Starr”
FLAGS DCP
INDEX 01 27:16:46
TRACK 09 AUDIO
TITLE “Me And You”
PERFORMER “Ringo Starr”
FLAGS DCP
INDEX 01 30:24:30
TRACK 10 AUDIO
TITLE “Satisfied”
PERFORMER “Ringo Starr”
FLAGS DCP
INDEX 01 32:39:31
TRACK 11 AUDIO
TITLE “The Turnaround”
PERFORMER “Ringo Starr”
FLAGS DCP
INDEX 01 35:58:37
TRACK 12 AUDIO
TITLE “Free Drinks”
PERFORMER “Ringo Starr”
FLAGS DCP
INDEX 01 39:52:66


Leave a Reply

Your email address will not be published. Required fields are marked *

Enter the text from the image below
 

This site uses Akismet to reduce spam. Learn how your comment data is processed.