Ringo Starr And His All-Starr Band – The Anthology…So Far




No Cover available

Artist: Ringo Starr And His All-Starr Band
Year: 2001
Genre: Rock
Notes: Discogs
Add. Notes:
Watch Songs on: YouTube
Cover incl.: Yes
Encoder: FLAC
Bitrate: ~900 kBit/s (44.1 kHz/16 Bit/s)
Log & Cue incl.: Yes/Yes
Size: 1440,6 MB
Password: “slam” (without ” “)


All Downloads/Hosters are compatible

Download 1
KatFile.com
Turbobit.net
Rapidgator.net
FileFactory.com
Download 2
KatFile.com
Turbobit.net
Rapidgator.net
FileFactory.com

Tracklist:

1-1. Ringo Starr - I Don't Come Easy 
1-2. Ringo Starr - No-No Song 
1-3. Dr. John - Iko Iko 
1-4. Levon Helm - The Weight 
1-5. Nils Lofgren - Shine Silently 
1-6. Ringo Starr - Honey Don't 
1-7. Clarence Clemons - Quarter To Three 
1-8. Rick Danko - Raining In My Heart 
1-9. Billy Preston - Will It Go Round In Circles 
1-10. Joe Walsh - Life In The Fast Lane 
1-11. Joe Walsh - Desperado 
1-12. Peter Frampton - Norwegian Wood 
1-13. Nils Lofgren - Walking Nerve 
1-14. John Entwistle - Boris The Spider 
1-15. Mark Farner - Some Kind Of Wonderful 
1-16. Ringo Starr - You're Sixteen 
1-17. Ringo Starr - Photograph 
2-1. Quincy Jones - The Really Serious Introduction 
2-2. Ringo Starr - I'm The Greatest 
2-3. Ringo Starr - Don't Go Where The Road Don't Go 
2-4. Timothy B. Schmit - I Can't Tell You Why 
2-5. Dave Edmunds - Girls Talk 
2-6. Felix Cavaliere - People Got To Be Free 
2-7. Felix Cavaliere - Groovin' 
2-8. Ringo Starr - Act Naturally 
2-9. Randy Bachman - Takin' Care Of Business 
2-10. Randy Bachman - You Ain't Seen Nothin' Yet 
2-11. Joe Walsh - In The City 
2-12. Todd Rundgren - Bang The Drum All Day 
2-13. Todd Rundgren - Black Maria 
2-14. Burton Cummings - American Woman 
2-15. Ringo Starr - Weight Of The World 
2-16. Ringo Starr - Back Off Boogaloo 
3-1. Ringo Starr - Yellow Submarine 
3-2. Peter Frampton - Show Me The Way 
3-3. Jack Bruce - Sunshine Of Your Love 
3-4. Dave Edmunds - I Hear You Knocking 
3-5. Simon Kirke - Shooting Star
3-6. Ringo Starr - Boys
3-7. Peter Frampton - Baby I Love Your Way
3-8. Gary Brooker - A Salty Dog
3-9. Jack Bruce - I Feel Free
3-10. Simon Kirke - All Right Now
3-11. Ringo Starr - I Wanna Be Your Man
3-12. Gary Brooker - A Whiter Shade Of Pale
3-13. Eric Carmen - Hungry Eyes
3-14. Eric Carmen - All By Myself
3-15. Ringo Starr - With A Little Help From My Friends

EAC-Log, CUE-Sheed & NFO:

Click to open spoiler
Exact Audio Copy V1.0 beta 3 from 29. August 2011

EAC extraction logfile from 11. September 2014, 15:15

Ringo Starr and his All Starr Band / The Anthology… So Far (Disc 2)

Used drive : ASUS SDRW-08D1S-U Adapter: 1 ID: 0

Read mode : Secure
Utilize accurate stream : Yes
Defeat audio cache : Yes
Make use of C2 pointers : No

Read offset correction : 667
Overread into Lead-In and Lead-Out : No
Fill up missing offset samples with silence : Yes
Delete leading and trailing silent blocks : No
Null samples used in CRC calculations : Yes
Used interface : Native Win32 interface for Win NT & 2000

Used output format : User Defined Encoder
Selected bitrate : 128 kBit/s
Quality : High
Add ID3 tag : No
Command line compressor : C:\Program Files (x86)\Exact Audio Copy\Flac\flac.exe
Additional command line options : -V -8 -T “Date=%year%” -T “Genre=%genre%” %source%

TOC of the extracted CD

Track | Start | Length | Start sector | End sector
———————————————————
1 | 0:00.00 | 2:01.37 | 0 | 9111
2 | 2:01.37 | 3:30.17 | 9112 | 24878
3 | 5:31.54 | 4:28.32 | 24879 | 45010
4 | 10:00.11 | 5:09.72 | 45011 | 68257
5 | 15:10.08 | 3:31.66 | 68258 | 84148
6 | 18:41.74 | 4:53.72 | 84149 | 106195
7 | 23:35.71 | 4:58.15 | 106196 | 128560
8 | 28:34.11 | 2:41.64 | 128561 | 140699
9 | 31:16.00 | 7:37.73 | 140700 | 175047
10 | 38:53.73 | 3:45.26 | 175048 | 191948
11 | 42:39.24 | 4:55.58 | 191949 | 214131
12 | 47:35.07 | 3:34.43 | 214132 | 230224
13 | 51:09.50 | 5:32.19 | 230225 | 255143
14 | 56:41.69 | 5:59.38 | 255144 | 282106
15 | 62:41.32 | 3:36.66 | 282107 | 298372
16 | 66:18.23 | 3:19.64 | 298373 | 313361

Range status and errors

Selected range

Filename C:\Users\Олег\Desktop\Ringo Starr\CD 2\Ringo Starr and his All Starr Band – The Anthology… So Far (Disc 2).wav

Peak level 100.0 %
Extraction speed 4.2 X
Range quality 100.0 %
Test CRC 64B9D28B
Copy CRC 64B9D28B
Copy OK

No errors occurred

AccurateRip summary

Track 1 accurately ripped (confidence 5) [3D1FC321] (AR v1)
Track 2 accurately ripped (confidence 6) [1890A98A] (AR v1)
Track 3 accurately ripped (confidence 5) [BAEF8907] (AR v1)
Track 4 accurately ripped (confidence 2) [C7B82A7F] (AR v2)
Track 5 accurately ripped (confidence 5) [58C1C250] (AR v1)
Track 6 accurately ripped (confidence 2) [A9BAC1FE] (AR v2)
Track 7 accurately ripped (confidence 2) [0AF27F83] (AR v2)
Track 8 accurately ripped (confidence 2) [9D82BBFD] (AR v2)
Track 9 accurately ripped (confidence 2) [FAB4D658] (AR v2)
Track 10 accurately ripped (confidence 2) [2F3BE445] (AR v2)
Track 11 accurately ripped (confidence 2) [44922ECA] (AR v2)
Track 12 accurately ripped (confidence 5) [819BD096] (AR v1)
Track 13 accurately ripped (confidence 5) [125A21F4] (AR v1)
Track 14 accurately ripped (confidence 2) [C19439A3] (AR v2)
Track 15 accurately ripped (confidence 5) [A1161B8B] (AR v1)
Track 16 accurately ripped (confidence 2) [CB3722C9] (AR v2)

All tracks accurately ripped

End of status report

==== Log checksum DD258FBCD3173CCC9EFCE0F3BB25D487439E16EA742510A52210AB9E5BDE2D03 ====

Exact Audio Copy V1.0 beta 3 from 29. August 2011

EAC extraction logfile from 11. September 2014, 12:18

Ringo Starr And His All Starr Band / The Anthology… So Far – Disc 1

Used drive : ASUS SDRW-08D1S-U Adapter: 1 ID: 0

Read mode : Secure
Utilize accurate stream : Yes
Defeat audio cache : Yes
Make use of C2 pointers : No

Read offset correction : 667
Overread into Lead-In and Lead-Out : No
Fill up missing offset samples with silence : Yes
Delete leading and trailing silent blocks : No
Null samples used in CRC calculations : Yes
Used interface : Native Win32 interface for Win NT & 2000

Used output format : User Defined Encoder
Selected bitrate : 128 kBit/s
Quality : High
Add ID3 tag : No
Command line compressor : C:\Program Files (x86)\Exact Audio Copy\Flac\flac.exe
Additional command line options : -V -8 -T “Date=%year%” -T “Genre=%genre%” %source%

TOC of the extracted CD

Track | Start | Length | Start sector | End sector
———————————————————
1 | 0:00.00 | 3:13.50 | 0 | 14524
2 | 3:13.50 | 3:31.48 | 14525 | 30397
3 | 6:45.23 | 6:11.64 | 30398 | 58286
4 | 12:57.12 | 5:57.71 | 58287 | 85132
5 | 18:55.08 | 6:45.70 | 85133 | 115577
6 | 25:41.03 | 2:40.02 | 115578 | 127579
7 | 28:21.05 | 3:54.54 | 127580 | 145183
8 | 32:15.59 | 5:20.56 | 145184 | 169239
9 | 37:36.40 | 4:22.04 | 169240 | 188893
10 | 41:58.44 | 6:47.36 | 188894 | 219454
11 | 48:46.05 | 2:59.41 | 219455 | 232920
12 | 51:45.46 | 2:54.06 | 232921 | 245976
13 | 54:39.52 | 4:28.01 | 245977 | 266077
14 | 59:07.53 | 2:41.03 | 266078 | 278155
15 | 61:48.56 | 4:54.46 | 278156 | 300251
16 | 66:43.27 | 3:15.13 | 300252 | 314889
17 | 69:58.40 | 4:20.68 | 314890 | 334457

Range status and errors

Selected range

Filename C:\Users\Олег\Desktop\Ringo Starr And His All Starr Band – The Anthology… So Far – Disc 1.wav

Peak level 100.0 %
Extraction speed 4.2 X
Range quality 99.9 %
Test CRC CED39755
Copy CRC CED39755
Copy OK

No errors occurred

AccurateRip summary

Track 1 accurately ripped (confidence 3) [40204911] (AR v2)
Track 2 accurately ripped (confidence 2) [69E1D81A] (AR v2)
Track 3 accurately ripped (confidence 2) [DCA53C58] (AR v2)
Track 4 accurately ripped (confidence 2) [9C6814F3] (AR v2)
Track 5 accurately ripped (confidence 5) [9143DD8E] (AR v1)
Track 6 accurately ripped (confidence 2) [782FE8E9] (AR v2)
Track 7 accurately ripped (confidence 2) [C0E6AA6A] (AR v2)
Track 8 accurately ripped (confidence 3) [22A5FAEC] (AR v2)
Track 9 accurately ripped (confidence 2) [D6753E9F] (AR v2)
Track 10 accurately ripped (confidence 3) [E84940A0] (AR v2)
Track 11 accurately ripped (confidence 3) [8CA00985] (AR v2)
Track 12 accurately ripped (confidence 3) [D5BA3C47] (AR v2)
Track 13 accurately ripped (confidence 2) [ECCCB143] (AR v2)
Track 14 accurately ripped (confidence 2) [14498250] (AR v2)
Track 15 accurately ripped (confidence 3) [374C0460] (AR v2)
Track 16 accurately ripped (confidence 2) [7BCA90A0] (AR v2)
Track 17 accurately ripped (confidence 2) [755110C6] (AR v2)

All tracks accurately ripped

End of status report

==== Log checksum 7DE76B62CA16DB2B040C1B3FB262905ED140375057C773130BA7E6AA43E2CFAA ====

Exact Audio Copy V1.0 beta 3 from 29. August 2011

EAC extraction logfile from 11. September 2014, 16:33

Ringo Starr and his All-Starr Band / The Anthology… So Far. (Disc 3)

Used drive : ASUS SDRW-08D1S-U Adapter: 1 ID: 0

Read mode : Secure
Utilize accurate stream : Yes
Defeat audio cache : Yes
Make use of C2 pointers : No

Read offset correction : 667
Overread into Lead-In and Lead-Out : No
Fill up missing offset samples with silence : Yes
Delete leading and trailing silent blocks : No
Null samples used in CRC calculations : Yes
Used interface : Native Win32 interface for Win NT & 2000

Used output format : User Defined Encoder
Selected bitrate : 128 kBit/s
Quality : High
Add ID3 tag : No
Command line compressor : C:\Program Files (x86)\Exact Audio Copy\Flac\flac.exe
Additional command line options : -V -8 -T “Date=%year%” -T “Genre=%genre%” %source%

TOC of the extracted CD

Track | Start | Length | Start sector | End sector
———————————————————
1 | 0:00.00 | 3:31.70 | 0 | 15894
2 | 3:31.70 | 5:06.23 | 15895 | 38867
3 | 8:38.18 | 7:46.24 | 38868 | 73841
4 | 16:24.42 | 2:58.54 | 73842 | 87245
5 | 19:23.21 | 6:02.62 | 87246 | 114457
6 | 25:26.08 | 2:41.18 | 114458 | 126550
7 | 28:07.26 | 5:12.70 | 126551 | 150020
8 | 33:20.21 | 4:45.18 | 150021 | 171413
9 | 38:05.39 | 3:37.48 | 171414 | 187736
10 | 41:43.12 | 4:37.54 | 187737 | 208565
11 | 46:20.66 | 3:09.21 | 208566 | 222761
12 | 49:30.12 | 6:20.01 | 222762 | 251262
13 | 55:50.13 | 3:50.14 | 251263 | 268526
14 | 59:40.27 | 7:42.57 | 268527 | 303233
15 | 67:23.09 | 5:24.10 | 303234 | 327543

Range status and errors

Selected range

Filename C:\Users\Олег\Desktop\Ringo Starr\CD 3\Ringo Starr and his All-Starr Band – The Anthology… So Far. (Disc 3).wav

Peak level 99.6 %
Extraction speed 4.2 X
Range quality 100.0 %
Test CRC BBA8311B
Copy CRC BBA8311B
Copy OK

No errors occurred

AccurateRip summary

Track 1 accurately ripped (confidence 5) [278AAFE9] (AR v1)
Track 2 accurately ripped (confidence 2) [4BF8B475] (AR v2)
Track 3 accurately ripped (confidence 2) [BA71FC0F] (AR v2)
Track 4 accurately ripped (confidence 2) [27C16CFD] (AR v2)
Track 5 accurately ripped (confidence 2) [4B0DB16E] (AR v2)
Track 6 accurately ripped (confidence 5) [F2249D14] (AR v1)
Track 7 accurately ripped (confidence 2) [91209082] (AR v2)
Track 8 accurately ripped (confidence 2) [17B5CB35] (AR v2)
Track 9 accurately ripped (confidence 2) [2391F2F0] (AR v2)
Track 10 accurately ripped (confidence 2) [2A13BDDC] (AR v2)
Track 11 accurately ripped (confidence 4) [866E12B5] (AR v1)
Track 12 accurately ripped (confidence 2) [A522CF2E] (AR v2)
Track 13 accurately ripped (confidence 2) [B2019214] (AR v2)
Track 14 accurately ripped (confidence 2) [5EB8C4ED] (AR v2)
Track 15 accurately ripped (confidence 3) [980671FC] (AR v2)

All tracks accurately ripped

End of status report

==== Log checksum 1AC7661C49672D0AD22CCF82F0A885A6295787CF4134B3934C196187F4D3949A ====

REM GENRE Rock
REM DATE 2000
REM DISCID CD105210
REM COMMENT “ExactAudioCopy v1.0b3”
PERFORMER “Ringo Starr and his All Starr Band”
TITLE “The Anthology… So Far (Disc 2)”
FILE “Ringo Starr and his All Starr Band – The Anthology… So Far (Disc 2).flac” WAVE
TRACK 01 AUDIO
TITLE “The Really Serious Introduction”
PERFORMER “Ringo Starr and his All Starr Band”
INDEX 01 00:00:00
TRACK 02 AUDIO
TITLE “I’m The Greatest”
PERFORMER “Ringo Starr and his All Starr Band”
INDEX 01 02:01:37
TRACK 03 AUDIO
TITLE “Don’t Go Where The Road Don’t Go”
PERFORMER “Ringo Starr and his All Starr Band”
INDEX 01 05:31:54
TRACK 04 AUDIO
TITLE “I Can’t Tell You Why (Timothy B. Schmidt)”
PERFORMER “Ringo Starr and his All Starr Band”
INDEX 01 10:00:11
TRACK 05 AUDIO
TITLE “Girls Talk (Dave Edmunds)”
PERFORMER “Ringo Starr and his All Starr Band”
INDEX 01 15:10:08
TRACK 06 AUDIO
TITLE “People Got To Be Free (Felix Cavaliere)”
PERFORMER “Ringo Starr and his All Starr Band”
INDEX 01 18:41:74
TRACK 07 AUDIO
TITLE “Groovin’ (Felix Cavaliere)”
PERFORMER “Ringo Starr and his All Starr Band”
INDEX 01 23:35:71
TRACK 08 AUDIO
TITLE “Act Naturally”
PERFORMER “Ringo Starr and his All Starr Band”
INDEX 01 28:34:11
TRACK 09 AUDIO
TITLE “Takin’ Care Of Business (Randy Bachman)”
PERFORMER “Ringo Starr and his All Starr Band”
INDEX 01 31:16:00
TRACK 10 AUDIO
TITLE “You Ain’t Seen Nothin’ Yet (Randy Bachman)”
PERFORMER “Ringo Starr and his All Starr Band”
INDEX 01 38:53:73
TRACK 11 AUDIO
TITLE “In The City (Joe Walsh)”
PERFORMER “Ringo Starr and his All Starr Band”
INDEX 00 42:37:29
INDEX 01 42:39:24
TRACK 12 AUDIO
TITLE “Bang The Drum All Day (Todd Rundgren)”
PERFORMER “Ringo Starr and his All Starr Band”
INDEX 01 47:35:07
TRACK 13 AUDIO
TITLE “Black Maria (Todd Rundgren)”
PERFORMER “Ringo Starr and his All Starr Band”
INDEX 01 51:09:50
TRACK 14 AUDIO
TITLE “American Woman (Burton Cummings)”
PERFORMER “Ringo Starr and his All Starr Band”
INDEX 01 56:41:69
TRACK 15 AUDIO
TITLE “Weight Of The World”
PERFORMER “Ringo Starr and his All Starr Band”
INDEX 01 62:41:32
TRACK 16 AUDIO
TITLE “Back Off Boogaloo”
PERFORMER “Ringo Starr and his All Starr Band”
INDEX 01 66:18:23

REM GENRE Rock
REM DATE 2002
REM DISCID E2116B11
REM COMMENT “ExactAudioCopy v1.0b3”
PERFORMER “Ringo Starr And His All Starr Band”
TITLE “The Anthology… So Far – Disc 1”
FILE “Ringo Starr And His All Starr Band – The Anthology… So Far – Disc 1.flac” WAVE
TRACK 01 AUDIO
TITLE “It Don’t Come Easy”
PERFORMER “Ringo”
INDEX 01 00:00:00
TRACK 02 AUDIO
TITLE “The No-No Song”
PERFORMER “Ringo”
INDEX 01 03:13:50
TRACK 03 AUDIO
TITLE “Iko Iko”
PERFORMER “Dr John”
INDEX 01 06:45:23
TRACK 04 AUDIO
TITLE “The Weight”
PERFORMER “Levon Helm”
INDEX 00 12:55:12
INDEX 01 12:57:12
TRACK 05 AUDIO
TITLE “Shine Silently”
PERFORMER “Nils Lofgren”
INDEX 01 18:55:08
TRACK 06 AUDIO
TITLE “Honey Don’t”
PERFORMER “Ringo”
INDEX 01 25:41:03
TRACK 07 AUDIO
TITLE “Quarter To Three”
PERFORMER “Ckarence Clemons”
INDEX 01 28:21:05
TRACK 08 AUDIO
TITLE “Raining In My Heart”
PERFORMER “Rick Danko”
INDEX 01 32:15:59
TRACK 09 AUDIO
TITLE “Will It Go Round In Circles”
PERFORMER “Billy Preston”
INDEX 01 37:36:40
TRACK 10 AUDIO
TITLE “Life In The Fast Lane”
PERFORMER “Joe Walsh”
INDEX 01 41:58:44
TRACK 11 AUDIO
TITLE “Deperado”
PERFORMER “Joe Walsh”
INDEX 01 48:46:05
TRACK 12 AUDIO
TITLE “Nowegian Wood”
PERFORMER “Peter Frampton”
INDEX 01 51:45:46
TRACK 13 AUDIO
TITLE “Walking Nerve”
PERFORMER “Nils Lofgren”
INDEX 01 54:39:52
TRACK 14 AUDIO
TITLE “Boris The Spider”
PERFORMER “John Entwistle”
INDEX 01 59:07:53
TRACK 15 AUDIO
TITLE “Some Kind Of Wpnderful”
PERFORMER “Mark Farner”
INDEX 01 61:48:56
TRACK 16 AUDIO
TITLE “You’re Sixteen, You’re Beautiful And You’re Mine”
PERFORMER “Ringo”
INDEX 01 66:43:27
TRACK 17 AUDIO
TITLE “Photograph”
PERFORMER “Ringo”
INDEX 01 69:58:40

REM GENRE Rock
REM DATE 2000
REM DISCID D1110F0F
REM COMMENT “ExactAudioCopy v1.0b3”
PERFORMER “Ringo Starr and his All-Starr Band”
TITLE “The Anthology… So Far. (Disc 3)”
FILE “Ringo Starr and his All-Starr Band – The Anthology… So Far. (Disc 3).flac” WAVE
TRACK 01 AUDIO
TITLE “Yellow Submarine”
PERFORMER “Ringo Starr and his All-Starr Band”
INDEX 01 00:00:00
TRACK 02 AUDIO
TITLE “Show Me The Way (Peter Frampton)”
PERFORMER “Ringo Starr and his All-Starr Band”
INDEX 01 03:31:70
TRACK 03 AUDIO
TITLE “Sunshine Of Your Love (Jack Bruce)”
PERFORMER “Ringo Starr and his All-Starr Band”
INDEX 01 08:38:18
TRACK 04 AUDIO
TITLE “I Hear You Knocking (Dave Edmunds)”
PERFORMER “Ringo Starr and his All-Starr Band”
INDEX 01 16:24:42
TRACK 05 AUDIO
TITLE “Shooting Star (Simon Kirke)”
PERFORMER “Ringo Starr and his All-Starr Band”
INDEX 01 19:23:21
TRACK 06 AUDIO
TITLE “Boys”
PERFORMER “Ringo Starr and his All-Starr Band”
INDEX 01 25:26:08
TRACK 07 AUDIO
TITLE “Baby I Love Your Way (Peter Frampton)”
PERFORMER “Ringo Starr and his All-Starr Band”
INDEX 01 28:07:26
TRACK 08 AUDIO
TITLE “A Salty Dog (Gary Brooker)”
PERFORMER “Ringo Starr and his All-Starr Band”
INDEX 01 33:20:21
TRACK 09 AUDIO
TITLE “I Feel Free (Jack Bruce)”
PERFORMER “Ringo Starr and his All-Starr Band”
INDEX 01 38:05:39
TRACK 10 AUDIO
TITLE “All Right Now (Simon Kirke)”
PERFORMER “Ringo Starr and his All-Starr Band”
INDEX 01 41:43:12
TRACK 11 AUDIO
TITLE “I Wanna Be Your Man”
PERFORMER “Ringo Starr and his All-Starr Band”
INDEX 01 46:20:66
TRACK 12 AUDIO
TITLE “A Whiter Shade Of Pale (Gary Brooker)”
PERFORMER “Ringo Starr and his All-Starr Band”
INDEX 01 49:30:12
TRACK 13 AUDIO
TITLE “Hungry Eyes (Eric Carmen)”
PERFORMER “Ringo Starr and his All-Starr Band”
INDEX 01 55:50:13
TRACK 14 AUDIO
TITLE “All By Myself (Eric Carmen)”
PERFORMER “Ringo Starr and his All-Starr Band”
INDEX 01 59:40:27
TRACK 15 AUDIO
TITLE “With A Little Help From My Friends”
PERFORMER “Ringo Starr and his All-Starr Band”
INDEX 01 67:23:09


Leave a Reply

Your email address will not be published. Required fields are marked *

Enter the text from the image below
 

This site uses Akismet to reduce spam. Learn how your comment data is processed.