Ringo Starr – 5.1 The Surround Sound Collection




No Cover available

Artist: Ringo Starr
Year: 2008
Genre: Rock
Notes: Discogs
Add. Notes:
Watch Songs on: YouTube
Cover incl.: Yes
Encoder: FLAC
Bitrate: ~1000 kBit/s (44.1 kHz/16 Bit/s)
Log & Cue incl.: Yes/Yes
Size: 372,2 MB
Password: “slam” (without ” “)


All Downloads/Hosters are compatible

Download 1
KatFile.com
Turbobit.net
FileFactory.com
Rapidgator.net
Download 2
KatFile.com
Turbobit.net
FileFactory.com
Rapidgator.net

Tracklist:

1. Ringo Starr - Fading In And Fading Out 
2. Ringo Starr - Never Without You 
3. Ringo Starr - Choose Love 
4. Ringo Starr - Imagine Me There 
5. Ringo Starr - Oh My Lord 
6. Ringo Starr - Memphis In Your Mind 
7. Ringo Starr - Give Me Back The Beat 
8. Ringo Starr - Love First, Ask Questions Later 
9. Ringo Starr, Chrissie Hynde - Don't Hang Up 
10. Ringo Starr - Eye To Eye 
11. Ringo Starr - Some People 
12. Ringo Starr - Elizabeth Reigns 
13. Ringo Starr - I Really Love Her

EAC-Log, CUE-Sheed & NFO:

Click to open spoiler
Exact Audio Copy V0.99 prebeta 5 from 4. May 2009

Отчёт EAC об извлечении, выполненном 25. января 2015, 20:00

Ringo Starr / Ringo 5.1 (The Surround Sound Collection)

Дисковод: SONY BD RW BDX-S500U Adapter: 1 ID: 0

Режим чтения : Достоверность
Использование точного потока : Да
Отключение кэша аудио : Да
Использование указателей C2 : Нет

Коррекция смещения при чтении : 48
Способность читать области Lead-in и Lead-out : Нет
Заполнение пропущенных сэмплов тишиной : Да
Удаление блоков с тишиной в начале и конце : Нет
При вычислениях CRC использовались нулевые сэмплы : Да
Интерфейс : Встроенный Win32-интерфейс для Win NT/2000

Выходной формат : Внутренние WAV-операции
Формат сэмплов : 44.100 Гц; 16 бит; стерео

TOC извлечённого CD

Трек | Старт | Длительность | Начальный сектор | Конечный сектор
———————————————————————
1 | 0:00.00 | 3:58.28 | 0 | 17877
2 | 3:58.28 | 5:25.64 | 17878 | 42316
3 | 9:24.17 | 3:09.20 | 42317 | 56511
4 | 12:33.37 | 3:57.10 | 56512 | 74296
5 | 16:30.47 | 5:34.71 | 74297 | 99417
6 | 22:05.43 | 3:14.26 | 99418 | 113993
7 | 25:19.69 | 3:58.65 | 113994 | 131908
8 | 29:18.59 | 4:46.52 | 131909 | 153410
9 | 34:05.36 | 3:30.06 | 153411 | 169166
10 | 37:35.42 | 3:21.04 | 169167 | 184245
11 | 40:56.46 | 3:21.24 | 184246 | 199344
12 | 44:17.70 | 3:55.33 | 199345 | 217002

Характеристики диапазона извлечения и сообщения об ошибках

Выбранный диапазон

Имя файла F:\Ringo_CDs\Ringo The Surround Sound Collection 5.1\Ringo Starr – Ringo 5.1 (The Surround Sound Collection).wav

Пиковый уровень 100.0 %
Качество диапазона 100.0 %
CRC теста FBC88D40
CRC копии FBC88D40
Копирование… OK

Ошибок не произошло

AccurateRip: сводка

Трек 1 точное извлечение (доверие 10) [228F841A]
Трек 2 точное извлечение (доверие 10) [BFC668CF]
Трек 3 точное извлечение (доверие 10) [822F4C3D]
Трек 4 точное извлечение (доверие 10) [DCCA86B2]
Трек 5 точное извлечение (доверие 10) [0493E099]
Трек 6 точное извлечение (доверие 10) [DB0123F1]
Трек 7 точное извлечение (доверие 10) [E9163B9C]
Трек 8 точное извлечение (доверие 10) [098D73DF]
Трек 9 точное извлечение (доверие 10) [3AA28FD6]
Трек 10 точное извлечение (доверие 9) [9EEF9925]
Трек 11 точное извлечение (доверие 9) [CAE5DECD]
Трек 12 точное извлечение (доверие 9) [540C6D8A]

Все треки извлечены точно

Конец отчёта

REM GENRE Pop/Rock
REM DATE 2008
REM DISCID A80B4D0C
REM COMMENT “ExactAudioCopy v0.99pb5”
PERFORMER “Ringo Starr”
TITLE “Ringo 5.1 (The Surround Sound Collection)”
FILE “Ringo Starr – Ringo 5.1 (The Surround Sound Collection).flac” WAVE
TRACK 01 AUDIO
TITLE “Fading In And Fading Out”
PERFORMER “Ringo Starr”
FLAGS DCP
INDEX 01 00:00:00
TRACK 02 AUDIO
TITLE “Never Without You”
PERFORMER “Ringo Starr”
FLAGS DCP
INDEX 00 03:56:28
INDEX 01 03:58:28
TRACK 03 AUDIO
TITLE “Choose Love”
PERFORMER “Ringo Starr”
FLAGS DCP
INDEX 00 09:22:17
INDEX 01 09:24:17
TRACK 04 AUDIO
TITLE “Imagine Me There”
PERFORMER “Ringo Starr”
FLAGS DCP
INDEX 00 12:31:37
INDEX 01 12:33:37
TRACK 05 AUDIO
TITLE “Oh My Lord (featuring Billy Preston)”
PERFORMER “Ringo Starr”
FLAGS DCP
INDEX 00 16:28:47
INDEX 01 16:30:47
TRACK 06 AUDIO
TITLE “Memphis In Your Mind”
PERFORMER “Ringo Starr”
FLAGS DCP
INDEX 00 22:03:43
INDEX 01 22:05:43
TRACK 07 AUDIO
TITLE “Give Me Back The Beat”
PERFORMER “Ringo Starr”
FLAGS DCP
INDEX 00 25:17:69
INDEX 01 25:19:69
INDEX 02 29:14:19
TRACK 08 AUDIO
TITLE “Love First, Ask Questions Later”
PERFORMER “Ringo Starr”
FLAGS DCP
INDEX 00 29:16:59
INDEX 01 29:18:59
TRACK 09 AUDIO
TITLE “Don’t Hang Up (featuring Chrissie Hynde)”
PERFORMER “Ringo Starr”
FLAGS DCP
INDEX 00 34:03:36
INDEX 01 34:05:36
TRACK 10 AUDIO
TITLE “Eye To Eye”
PERFORMER “Ringo Starr”
FLAGS DCP
INDEX 00 37:33:42
INDEX 01 37:35:42
TRACK 11 AUDIO
TITLE “Some People”
PERFORMER “Ringo Starr”
FLAGS DCP
INDEX 00 40:54:46
INDEX 01 40:56:46
TRACK 12 AUDIO
TITLE “Elizabeth Reigns”
PERFORMER “Ringo Starr”
FLAGS DCP
INDEX 00 44:15:70
INDEX 01 44:17:70


Leave a Reply

Your email address will not be published. Required fields are marked *

Enter the text from the image below
 

This site uses Akismet to reduce spam. Learn how your comment data is processed.