Red – Until We Have Faces




Artist: Red
Year: 2011
Genre: Rock
Notes: Discogs
Add. Notes:
Cover incl.: Yes
Encoder: FLAC
Bitrate: ~1000 kBit/s (44.1 kHz/16 Bit/s)
Log & Cue incl.: Yes
Size: 328,41 MB
Password: “slam” (without ” “)


All Downloads/Hosters are compatible

Download 1
Turbobit.net
KatFile.com
Rapidgator.net
Usersdrive.com
Download 2
Turbobit.net
KatFile.com
Rapidgator.net
Usersdrive.com

Tracklist:

1 - Feed The Machine - 5:11
2 - Faceless - 3:24
3 - Lie To Me (Denial) - 4:15
4 - Let It Burn - 4:58
5 - Buried Beneath - 3:47
6 - Not Alone - 4:08
7 - Watch You Crawl - 3:43
8 - The Outside - 3:14
9 - Who We Are - 3:54
10 - Best Is Yet To Come - 4:05
11 - Hymn For The Missing - 5:48

EAC-Log, CUE-Sheed & NFO:

Click to open spoiler
Exact Audio Copy V1.0 beta 3 from 29. August 2011

Отчёт EAC об извлечении, выполненном 3. августа 2013, 23:03

Red / Until We Have Faces

Дисковод: ASUS BW-12B1ST Adapter: 3 ID: 0

Режим чтения : Достоверность
Использование точного потока : Да
Отключение кэша аудио : Да
Использование указателей C2 : Нет

Коррекция смещения при чтении : 6
Способность читать области Lead-in и Lead-out : Нет
Заполнение пропущенных сэмплов тишиной : Да
Удаление блоков с тишиной в начале и конце : Нет
При вычислениях CRC использовались нулевые сэмплы : Да
Интерфейс : Встроенный Win32-интерфейс для Win NT/2000

Выходной формат : Внутренние WAV-операции
Формат сэмплов : 44.100 Гц; 16 бит; стерео

TOC извлечённого CD

Трек | Старт | Длительность | Начальный сектор | Конечный сектор
———————————————————————
1 | 0:00.00 | 5:10.69 | 0 | 23318
2 | 5:10.69 | 3:23.39 | 23319 | 38582
3 | 8:34.33 | 4:14.50 | 38583 | 57682
4 | 12:49.08 | 4:57.62 | 57683 | 80019
5 | 17:46.70 | 3:46.44 | 80020 | 97013
6 | 21:33.39 | 4:08.13 | 97014 | 115626
7 | 25:41.52 | 3:42.36 | 115627 | 132312
8 | 29:24.13 | 3:14.19 | 132313 | 146881
9 | 32:38.32 | 3:54.05 | 146882 | 164436
10 | 36:32.37 | 4:04.64 | 164437 | 182800
11 | 40:37.26 | 5:37.59 | 182801 | 208134

Характеристики диапазона извлечения и сообщения об ошибках

Выбранный диапазон

Имя файла D:\EAC\Red – 2011 – Until We Have Faces (Essential Records ‎– 83061.0916.2)\Red – 2011 – Until We Have Faces.wav

Пиковый уровень 100.0 %
Скорость извлечения 3.1 X
Качество диапазона 100.0 %
CRC теста 5EB50337
CRC копии 5EB50337
Копирование… OK

Ошибок не произошло

AccurateRip: сводка

Трек 1 : извлечено точно (доверие 28) [37223A1C] (AR v2)
Трек 2 : извлечено точно (доверие 29) [E22021A6] (AR v2)
Трек 3 : извлечено точно (доверие 29) [CA69F4B2] (AR v2)
Трек 4 : извлечено точно (доверие 28) [EB94C685] (AR v2)
Трек 5 : извлечено точно (доверие 29) [89783F3D] (AR v2)
Трек 6 : извлечено точно (доверие 29) [85B02C33] (AR v2)
Трек 7 : извлечено точно (доверие 29) [B92A6C8D] (AR v2)
Трек 8 : извлечено точно (доверие 29) [00DC917E] (AR v2)
Трек 9 : извлечено точно (доверие 28) [CA565E5C] (AR v2)
Трек 10 : извлечено точно (доверие 29) [D8AC8747] (AR v2)
Трек 11 : извлечено точно (доверие 29) [FA8FEA3E] (AR v2)

Все треки извлечены точно

Конец отчёта

==== Контрольная сумма отчёта 02953A8EC0CE1D35607E01CBFF4E95878C0FEFD9289E92C32033983708A34943 ====

REM GENRE “Heavy Rock”
REM DATE 2011
REM DISCID 960AD70B
REM COMMENT “ExactAudioCopy v1.0b3”
CATALOG 0083061091620
PERFORMER “Red”
TITLE “Until We Have Faces”
FILE “Red – 2011 – Until We Have Faces.flac” WAVE
TRACK 01 AUDIO
TITLE “Feed The Machine”
PERFORMER “Red”
ISRC USA5W1000720
INDEX 01 00:00:00
TRACK 02 AUDIO
TITLE “Faceless”
PERFORMER “Red”
ISRC USA5W1000721
INDEX 01 05:10:69
TRACK 03 AUDIO
TITLE “Lie To Me (Denial)”
PERFORMER “Red”
ISRC USA5W1000722
INDEX 01 08:34:33
TRACK 04 AUDIO
TITLE “Let It Burn”
PERFORMER “Red”
ISRC USA5W1000723
INDEX 01 12:49:08
TRACK 05 AUDIO
TITLE “Buried Beneath”
PERFORMER “Red”
ISRC USA5W1000724
INDEX 01 17:46:70
TRACK 06 AUDIO
TITLE “Not Alone”
PERFORMER “Red”
ISRC USA5W1000725
INDEX 01 21:33:39
TRACK 07 AUDIO
TITLE “Watch You Crawl”
PERFORMER “Red”
ISRC USA5W1000726
INDEX 01 25:41:52
TRACK 08 AUDIO
TITLE “The Outside”
PERFORMER “Red”
ISRC USA5W1000727
INDEX 01 29:24:13
TRACK 09 AUDIO
TITLE “Who We Are”
PERFORMER “Red”
ISRC USA5W1000728
INDEX 01 32:38:32
TRACK 10 AUDIO
TITLE “Best Is Yet To Come”
PERFORMER “Red”
ISRC USA5W1000729
INDEX 01 36:32:37
TRACK 11 AUDIO
TITLE “Hymn For The Missing”
PERFORMER “Red”
ISRC USA5W1000730
INDEX 01 40:37:26


Leave a Reply

Your email address will not be published. Required fields are marked *

Enter the text from the image below
 

This site uses Akismet to reduce spam. Learn how your comment data is processed.