Red – Release The Panic (Deluxe Edition)




Artist: Red
Year: 2013
Genre: Rock
Notes: Discogs
Add. Notes: Deluxe Edition
Cover incl.: Yes
Encoder: FLAC
Bitrate: ~1000 kBit/s (44.1 kHz/16 Bit/s)
Log & Cue incl.: Yes
Size: 394,6 MB
Password: “slam” (without ” “)


All Downloads/Hosters are compatible

Download 1
KatFile.com
Turbobit.net
Rapidgator.net
Usersdrive.com
Download 2
KatFile.com
Turbobit.net
Rapidgator.net
Usersdrive.com

Tracklist:

1 - Release The Panic - 3:01
2 - Perfect Life - 2:51
3 - Die For You - 2:46
4 - Damage - 3:41
5 - Same Disease - 3:01
6 - Hold Me Now - 4:00
7 - If We Only - 3:46
8 - So Far Away - 3:55
9 - Glass House - 3:32
10 - The Moment We Come Alive - 3:23
11 - Love Will Leave A Mark - 2:41
12 - As You Go - 4:16
13 - Hymn For The Missing [Guillotine Remix] - 4:34
14 - Death Of Me [Guillotine Remix] - 4:42
15 - Breathe Into Me [Remix Acustica] - 3:54

EAC-Log, CUE-Sheed & NFO:

Click to open spoiler
Exact Audio Copy V1.0 beta 3 from 29. August 2011

Отчёт EAC об извлечении, выполненном 23. сентября 2013, 21:25

Red / Release The Panic

Дисковод: ASUS BW-12B1ST Adapter: 3 ID: 0

Режим чтения : Достоверность
Использование точного потока : Да
Отключение кэша аудио : Да
Использование указателей C2 : Нет

Коррекция смещения при чтении : 6
Способность читать области Lead-in и Lead-out : Нет
Заполнение пропущенных сэмплов тишиной : Да
Удаление блоков с тишиной в начале и конце : Нет
При вычислениях CRC использовались нулевые сэмплы : Да
Интерфейс : Встроенный Win32-интерфейс для Win NT/2000

Выходной формат : Внутренние WAV-операции
Формат сэмплов : 44.100 Гц; 16 бит; стерео

TOC извлечённого CD

Трек | Старт | Длительность | Начальный сектор | Конечный сектор
———————————————————————
1 | 0:00.00 | 3:01.74 | 0 | 13648
2 | 3:01.74 | 2:51.44 | 13649 | 26517
3 | 5:53.43 | 2:46.62 | 26518 | 39029
4 | 8:40.30 | 3:41.41 | 39030 | 55645
5 | 12:21.71 | 3:02.09 | 55646 | 69304
6 | 15:24.05 | 4:01.14 | 69305 | 87393
7 | 19:25.19 | 3:46.52 | 87394 | 104395
8 | 23:11.71 | 3:55.38 | 104396 | 122058
9 | 27:07.34 | 3:32.69 | 122059 | 138027
10 | 30:40.28 | 3:23.26 | 138028 | 153278
11 | 34:03.54 | 2:41.26 | 153279 | 165379
12 | 36:45.05 | 4:17.09 | 165380 | 184663
13 | 41:02.14 | 4:34.53 | 184664 | 205266
14 | 45:36.67 | 4:42.50 | 205267 | 226466
15 | 50:19.42 | 3:55.13 | 226467 | 244104

Характеристики диапазона извлечения и сообщения об ошибках

Выбранный диапазон

Имя файла D:\EAC\Red – 2013 – Release The Panic (Deluxe Edition) (Essential Records ‎– 83061 09712)\Red – 2013 – Release The Panic.wav

Пиковый уровень 100.0 %
Скорость извлечения 3.3 X
Качество диапазона 100.0 %
CRC теста 2940B790
CRC копии 2940B790
Копирование… OK

Ошибок не произошло

AccurateRip: сводка

Трек 1 : извлечено точно (доверие 18) [6B9D6232] (AR v2)
Трек 2 : извлечено точно (доверие 18) [A2DB9D18] (AR v2)
Трек 3 : извлечено точно (доверие 19) [AB793A2D] (AR v2)
Трек 4 : извлечено точно (доверие 19) [81761D4B] (AR v2)
Трек 5 : извлечено точно (доверие 19) [32CBA8D0] (AR v2)
Трек 6 : извлечено точно (доверие 17) [62A10C1B] (AR v2)
Трек 7 : извлечено точно (доверие 19) [ECD4CAF2] (AR v2)
Трек 8 : извлечено точно (доверие 18) [61A7B972] (AR v2)
Трек 9 : извлечено точно (доверие 19) [7D0790D9] (AR v2)
Трек 10 : извлечено точно (доверие 19) [D926709F] (AR v2)
Трек 11 : извлечено точно (доверие 19) [D17F9AA9] (AR v2)
Трек 12 : извлечено точно (доверие 17) [CEE02B2E] (AR v2)
Трек 13 : извлечено точно (доверие 19) [FD297ADC] (AR v2)
Трек 14 : извлечено точно (доверие 19) [C75F4088] (AR v2)
Трек 15 : извлечено точно (доверие 19) [73F94EAA] (AR v2)

Все треки извлечены точно

Конец отчёта

==== Контрольная сумма отчёта 883164F7D8EC41309817D0328080990C614C439E5E5F3D920F59FF615E19EBB0 ====

REM GENRE Alt-Metal
REM DATE 2013
REM DISCID C30CB60F
REM COMMENT “ExactAudioCopy v1.0b3”
PERFORMER “Red”
TITLE “Release The Panic”
FILE “Red – 2013 – Release The Panic.flac” WAVE
TRACK 01 AUDIO
TITLE “Release The Panic”
PERFORMER “Red”
ISRC USA5W1200391
INDEX 01 00:00:00
TRACK 02 AUDIO
TITLE “Perfect Life”
PERFORMER “Red”
ISRC USA5W1200392
INDEX 00 03:01:66
INDEX 01 03:01:74
TRACK 03 AUDIO
TITLE “Die For You”
PERFORMER “Red”
ISRC USA5W1200393
INDEX 01 05:53:43
TRACK 04 AUDIO
TITLE “Damage”
PERFORMER “Red”
ISRC USA5W1200394
INDEX 00 08:40:18
INDEX 01 08:40:30
TRACK 05 AUDIO
TITLE “Same Disease”
PERFORMER “Red”
ISRC USA5W1200395
INDEX 01 12:21:71
TRACK 06 AUDIO
TITLE “Hold Me Now”
PERFORMER “Red”
ISRC USA5W1200396
INDEX 00 15:23:69
INDEX 01 15:24:05
TRACK 07 AUDIO
TITLE “If We Only”
PERFORMER “Red”
ISRC USA5W1200397
INDEX 00 19:24:54
INDEX 01 19:25:19
TRACK 08 AUDIO
TITLE “So Far Away”
PERFORMER “Red”
ISRC USA5W1200398
INDEX 00 23:11:35
INDEX 01 23:11:71
TRACK 09 AUDIO
TITLE “Glass House”
PERFORMER “Red”
ISRC USA5W1200399
INDEX 00 27:06:67
INDEX 01 27:07:34
TRACK 10 AUDIO
TITLE “The Moment We Come Alive”
PERFORMER “Red”
ISRC USA5W1200400
INDEX 01 30:40:28
TRACK 11 AUDIO
TITLE “Love Will Leave A Mark”
PERFORMER “Red”
ISRC USA5W1200401
INDEX 00 34:02:70
INDEX 01 34:03:54
TRACK 12 AUDIO
TITLE “As You Go”
PERFORMER “Red”
ISRC USA5W1200402
INDEX 00 36:44:42
INDEX 01 36:45:05
TRACK 13 AUDIO
TITLE “Hymn For The Missing (Guillotine Remix)”
PERFORMER “Red”
ISRC USA5W1200403
INDEX 00 41:00:54
INDEX 01 41:02:14
TRACK 14 AUDIO
TITLE “Death Of Me (Guillotine Remix)”
PERFORMER “Red”
ISRC USA5W1200404
INDEX 00 45:36:54
INDEX 01 45:36:67
TRACK 15 AUDIO
TITLE “Breathe Into Me (Remix Acustica)”
PERFORMER “Red”
ISRC USA5W0600145
INDEX 00 50:19:40
INDEX 01 50:19:42


Leave a Reply

Your email address will not be published. Required fields are marked *

This site uses Akismet to reduce spam. Learn how your comment data is processed.