Red – of Beauty and Rage




Artist: Red
Year: 2015
Genre: Alternative
Notes: Discogs
Add. Notes:
Cover incl.: Yes
Encoder: FLAC
Bitrate: ~1000 kBit/s (44.1 kHz/16 Bit/s)
Log & Cue incl.: Yes
Size: 417,26 MB
Password: “slam” (without ” “)


All Downloads/Hosters are compatible

Download 1
Turbobit.net
KatFile.com
Rapidgator.net
Download 2
Turbobit.net
KatFile.com
Rapidgator.net

Tracklist:

1 - Descent - 1:11
2 - Impostor - 4:18
3 - Shadow And Soul - 5:44
4 - Darkest Part - 4:02
5 - Fight To Forget - 3:28
6 - Of These Chains - 3:53
7 - Falling Sky - 5:26
8 - The Forest - 0:55
9 - Yours Again - 4:49
10 - What You Keep Alive - 5:22
11 - Gravity Lies - 4:33
12 - Take Me Over - 3:51
13 - The Ever - 4:10
14 - Part That's Holding On - 4:45
15 - Ascent - 3:58

EAC-Log, CUE-Sheed & NFO:

Click to open spoiler
Exact Audio Copy V1.0 beta 6 from 9. April 2015

Отчёт EAC об извлечении, выполненном 22. мая 2015, 15:20

Red / of Beauty and Rage

Дисковод: ASUS BW-12B1ST Adapter: 1 ID: 0

Режим чтения : Достоверность
Использование точного потока : Да
Отключение кэша аудио : Да
Использование указателей C2 : Нет

Коррекция смещения при чтении : 6
Способность читать области Lead-in и Lead-out : Нет
Заполнение пропущенных сэмплов тишиной : Да
Удаление блоков с тишиной в начале и конце : Нет
При вычислениях CRC использовались нулевые сэмплы : Да
Интерфейс : Встроенный Win32-интерфейс для Win NT/2000

Выходной формат : Внутренние WAV-операции
Формат сэмплов : 44.100 Гц; 16 бит; стерео

TOC извлечённого CD

Трек | Старт | Длительность | Начальный сектор | Конечный сектор
———————————————————————
1 | 0:00.00 | 1:11.59 | 0 | 5383
2 | 1:11.59 | 4:18.69 | 5384 | 24802
3 | 5:30.53 | 5:44.55 | 24803 | 50657
4 | 11:15.33 | 4:02.65 | 50658 | 68872
5 | 15:18.23 | 3:28.15 | 68873 | 84487
6 | 18:46.38 | 3:53.35 | 84488 | 101997
7 | 22:39.73 | 5:26.12 | 101998 | 126459
8 | 28:06.10 | 0:55.11 | 126460 | 130595
9 | 29:01.21 | 4:49.54 | 130596 | 152324
10 | 33:51.00 | 5:22.13 | 152325 | 176487
11 | 39:13.13 | 4:33.11 | 176488 | 196973
12 | 43:46.24 | 3:51.30 | 196974 | 214328
13 | 47:37.54 | 4:10.52 | 214329 | 233130
14 | 51:48.31 | 4:45.13 | 233131 | 254518
15 | 56:33.44 | 3:58.36 | 254519 | 272404

Характеристики диапазона извлечения и сообщения об ошибках

Выбранный диапазон

Имя файла D:\HDD\EAC\Red – 2015 – of Beauty and Rage (Essential Records ‎– 83061 0989 2)\Red – 2012 – of Beauty and Rage.wav

Пиковый уровень 100.0 %
Скорость извлечения 3.6 X
Качество диапазона 99.9 %
CRC теста 40A6A824
CRC копии 40A6A824
Копирование… OK

Ошибок не произошло

AccurateRip: сводка

Трек 1 : извлечено точно (доверие 7) [064FE4DF] (AR v2)
Трек 2 : извлечено точно (доверие 7) [8AA04815] (AR v2)
Трек 3 : извлечено точно (доверие 7) [309E7725] (AR v2)
Трек 4 : извлечено точно (доверие 7) [998D8562] (AR v2)
Трек 5 : извлечено точно (доверие 7) [E16F7A60] (AR v2)
Трек 6 : извлечено точно (доверие 7) [38E2EC6D] (AR v2)
Трек 7 : извлечено точно (доверие 7) [0E4C3CDB] (AR v2)
Трек 8 : извлечено точно (доверие 7) [B33471FB] (AR v2)
Трек 9 : извлечено точно (доверие 7) [0A137A7D] (AR v2)
Трек 10 : извлечено точно (доверие 7) [083A44CF] (AR v2)
Трек 11 : извлечено точно (доверие 7) [F11BA7E1] (AR v2)
Трек 12 : извлечено точно (доверие 7) [B33C4624] (AR v2)
Трек 13 : извлечено точно (доверие 7) [79D4F8B8] (AR v2)
Трек 14 : извлечено точно (доверие 7) [0C5F6112] (AR v2)
Трек 15 : извлечено точно (доверие 7) [2277361D] (AR v2)

Все треки извлечены точно

Конец отчёта

—- CUETools DB Plugin V2.1.6

[CTDB TOCID: NVZiM6odwfTuir5Fshz170WzkGE-] found
Submit result: NVZiM6odwfTuir5Fshz170WzkGE- has been confirmed
Track | CTDB Status
1 | (28/28) Accurately ripped
2 | (28/28) Accurately ripped
3 | (28/28) Accurately ripped
4 | (28/28) Accurately ripped
5 | (28/28) Accurately ripped
6 | (28/28) Accurately ripped
7 | (28/28) Accurately ripped
8 | (28/28) Accurately ripped
9 | (28/28) Accurately ripped
10 | (28/28) Accurately ripped
11 | (28/28) Accurately ripped
12 | (28/28) Accurately ripped
13 | (28/28) Accurately ripped
14 | (28/28) Accurately ripped
15 | (27/28) Accurately ripped

==== Контрольная сумма отчёта 57DB43C8AF0C6A542CEF8552C5CC1C5D0F50C8549E9A7CED874007377B7F6F5C ====

REM GENRE Alternative
REM DATE 2015
REM DISCID CA0E300F
REM COMMENT “ExactAudioCopy v1.0b6”
PERFORMER “Red”
TITLE “of Beauty and Rage”
FILE “Red – 2012 – of Beauty and Rage.flac” WAVE
TRACK 01 AUDIO
TITLE “Descent”
PERFORMER “Red”
ISRC USA5W1400326
INDEX 01 00:00:00
TRACK 02 AUDIO
TITLE “Impostor”
PERFORMER “Red”
ISRC USA5W1400327
INDEX 01 01:11:59
TRACK 03 AUDIO
TITLE “Shadow and Soul”
PERFORMER “Red”
ISRC USA5W1400328
INDEX 01 05:30:53
TRACK 04 AUDIO
TITLE “Darkest Part”
PERFORMER “Red”
ISRC USA5W1400329
INDEX 01 11:15:33
TRACK 05 AUDIO
TITLE “Fight to Forget”
PERFORMER “Red”
ISRC USA5W1400330
INDEX 01 15:18:23
TRACK 06 AUDIO
TITLE “Of These Chains”
PERFORMER “Red”
ISRC USA5W1400331
INDEX 01 18:46:38
TRACK 07 AUDIO
TITLE “Falling Sky”
PERFORMER “Red”
ISRC USA5W1400332
INDEX 01 22:39:73
TRACK 08 AUDIO
TITLE “The Forest”
PERFORMER “Red”
ISRC USA5W1400333
INDEX 01 28:06:10
TRACK 09 AUDIO
TITLE “Yours Again”
PERFORMER “Red”
ISRC USA5W1400334
INDEX 01 29:01:21
TRACK 10 AUDIO
TITLE “What You Keep Alive”
PERFORMER “Red”
ISRC USA5W1400335
INDEX 01 33:51:00
TRACK 11 AUDIO
TITLE “Gravity Lies”
PERFORMER “Red”
ISRC USA5W1400336
INDEX 01 39:13:13
TRACK 12 AUDIO
TITLE “Take Me Over”
PERFORMER “Red”
ISRC USA5W1400337
INDEX 01 43:46:24
TRACK 13 AUDIO
TITLE “The Ever”
PERFORMER “Red”
ISRC USA5W1400338
INDEX 01 47:37:54
TRACK 14 AUDIO
TITLE “Part That’s Holding On”
PERFORMER “Red”
ISRC USA5W1400339
INDEX 01 51:48:31
TRACK 15 AUDIO
TITLE “Ascent”
PERFORMER “Red”
ISRC USA5W1400340
INDEX 01 56:33:44


Leave a Reply

Your email address will not be published. Required fields are marked *

This site uses Akismet to reduce spam. Learn how your comment data is processed.