Red – Innocence & Instinct (Deluxe Edition)




Artist: Red
Year: 2009
Genre: Rock
Notes: Discogs
Add. Notes: Deluxe Edition
Cover incl.: Yes
Encoder: FLAC
Bitrate: ~1000 kBit/s (44.1 kHz/16 Bit/s)
Log & Cue incl.: Yes
Size: 380,26 MB
Password: “slam” (without ” “)


All Downloads/Hosters are compatible

Download 1
Turbobit.net
KatFile.com
Rapidgator.net
Download 2
Turbobit.net
KatFile.com
Rapidgator.net

Tracklist:

1 - Intro (Canto III) - 1:29
2 - Fight Inside - 4:08
3 - Death Of Me - 4:16
4 - Mystery Of You - 3:47
5 - Start Again - 4:26
6 - Never Be The Same - 3:48
7 - Confession (What's Inside My Head) - 2:44
8 - Shadows - 3:20
9 - Ordinary World - 4:57
10 - Out From Under - 3:59
11 - Take It All Away - 5:42
12 - Overtake You - 3:00
13 - Forever - 3:38
14 - Nothing And Everything - 5:58

EAC-Log, CUE-Sheed & NFO:

Click to open spoiler
Exact Audio Copy V1.0 beta 3 from 29. August 2011

Отчёт EAC об извлечении, выполненном 23. сентября 2013, 18:27

Red / Innocence & Instinct

Дисковод: ASUS BW-12B1ST Adapter: 3 ID: 0

Режим чтения : Достоверность
Использование точного потока : Да
Отключение кэша аудио : Да
Использование указателей C2 : Нет

Коррекция смещения при чтении : 6
Способность читать области Lead-in и Lead-out : Нет
Заполнение пропущенных сэмплов тишиной : Да
Удаление блоков с тишиной в начале и конце : Нет
При вычислениях CRC использовались нулевые сэмплы : Да
Интерфейс : Встроенный Win32-интерфейс для Win NT/2000

Выходной формат : Внутренние WAV-операции
Формат сэмплов : 44.100 Гц; 16 бит; стерео

TOC извлечённого CD

Трек | Старт | Длительность | Начальный сектор | Конечный сектор
———————————————————————
1 | 0:00.00 | 1:30.06 | 0 | 6755
2 | 1:30.06 | 4:08.35 | 6756 | 25390
3 | 5:38.41 | 4:17.11 | 25391 | 44676
4 | 9:55.52 | 3:47.25 | 44677 | 61726
5 | 13:43.02 | 4:27.11 | 61727 | 81762
6 | 18:10.13 | 3:49.08 | 81763 | 98945
7 | 21:59.21 | 2:44.12 | 98946 | 111257
8 | 24:43.33 | 3:20.39 | 111258 | 126296
9 | 28:03.72 | 4:57.44 | 126297 | 148615
10 | 33:01.41 | 3:59.33 | 148616 | 166573
11 | 37:00.74 | 5:42.64 | 166574 | 192287
12 | 42:43.63 | 3:00.54 | 192288 | 205841
13 | 45:44.42 | 3:38.24 | 205842 | 222215
14 | 49:22.66 | 5:59.12 | 222216 | 249152
15 | 57:54.03 | 2:17.73 | 260553 | 270900

Характеристики диапазона извлечения и сообщения об ошибках

Выбранный диапазон

Имя файла D:\EAC\Red – 2009 – Innocence & Instinct (Deluxe Edition) (Essential Records ‎– 83061 0898 2 )\Red – 2009 – Innocence & Instinct.wav

Пиковый уровень 100.0 %
Скорость извлечения 3.4 X
Качество диапазона 100.0 %
CRC теста F4ACB754
CRC копии F4ACB754
Копирование… OK

Ошибок не произошло

AccurateRip: сводка

Трек 1 : извлечено точно (доверие 10) [54B941E0] (AR v2)
Трек 2 : извлечено точно (доверие 11) [C936C2D0] (AR v2)
Трек 3 : извлечено точно (доверие 11) [0D35CFB8] (AR v2)
Трек 4 : извлечено точно (доверие 11) [A6EB1C75] (AR v2)
Трек 5 : извлечено точно (доверие 11) [2B26DC47] (AR v2)
Трек 6 : извлечено точно (доверие 11) [DB3B4ABA] (AR v2)
Трек 7 : извлечено точно (доверие 11) [ED45FC9E] (AR v2)
Трек 8 : извлечено точно (доверие 10) [2CAA8F05] (AR v2)
Трек 9 : извлечено точно (доверие 11) [82BCA688] (AR v2)
Трек 10 : извлечено точно (доверие 10) [B394EE59] (AR v2)
Трек 11 : извлечено точно (доверие 10) [E6B2DB37] (AR v2)
Трек 12 : извлечено точно (доверие 10) [617AF889] (AR v2)
Трек 13 : извлечено точно (доверие 10) [86AE7A7A] (AR v2)
Трек 14 : извлечено точно (доверие 10) [62B45C72] (AR v2)

Все треки извлечены точно

Конец отчёта

==== Контрольная сумма отчёта 555ADD1CB3F5133ACFB2A0F0E41D03E70CAF715BD61342B5402F238BE77E1525 ====

REM GENRE “Heavy Rock”
REM DATE 2009
REM DISCID DC0E1C0F
REM COMMENT “ExactAudioCopy v1.0b3”
PERFORMER “Red”
TITLE “Innocence & Instinct”
FILE “Red – 2009 – Innocence & Instinct.flac” WAVE
TRACK 01 AUDIO
TITLE “Intro (Canto III)”
PERFORMER “Red”
ISRC USA5W0803614
INDEX 01 00:00:00
TRACK 02 AUDIO
TITLE “Fight Inside”
PERFORMER “Red”
ISRC USA5W0803615
INDEX 01 01:30:06
TRACK 03 AUDIO
TITLE “Death Of Me”
PERFORMER “Red”
ISRC USA5W0803616
INDEX 01 05:38:41
TRACK 04 AUDIO
TITLE “Mystery of You”
PERFORMER “Red”
ISRC USA5W0803617
INDEX 01 09:55:52
TRACK 05 AUDIO
TITLE “Start Again”
PERFORMER “Red”
ISRC USA5W0803618
INDEX 01 13:43:02
TRACK 06 AUDIO
TITLE “Never Be The Same”
PERFORMER “Red”
ISRC USA5W0803619
INDEX 01 18:10:13
TRACK 07 AUDIO
TITLE “Confession (What’s Inside My Head)”
PERFORMER “Red”
ISRC USA5W0803620
INDEX 01 21:59:21
TRACK 08 AUDIO
TITLE “Shadows”
PERFORMER “Red”
ISRC USA5W0803621
INDEX 01 24:43:33
TRACK 09 AUDIO
TITLE “Ordinary World”
PERFORMER “Red”
ISRC USA5W0803622
INDEX 01 28:03:72
TRACK 10 AUDIO
TITLE “Out From Under”
PERFORMER “Red”
ISRC USA5W0803623
INDEX 01 33:01:41
TRACK 11 AUDIO
TITLE “Take It All Away”
PERFORMER “Red”
ISRC USA5W0803624
INDEX 01 37:00:74
TRACK 12 AUDIO
TITLE “Overtake You”
PERFORMER “Red”
ISRC USA5W0803625
INDEX 01 42:43:63
TRACK 13 AUDIO
TITLE “Forever”
PERFORMER “Red”
ISRC USA5W0803626
INDEX 01 45:44:42
TRACK 14 AUDIO
TITLE “Nothing and Everything”
PERFORMER “Red”
ISRC USA5W0803627
INDEX 01 49:22:66


Leave a Reply

Your email address will not be published. Required fields are marked *

Enter the text from the image below
 

This site uses Akismet to reduce spam. Learn how your comment data is processed.