Red Hot Chili Peppers – Road Trippin’ Through Time




Artist: Red Hot Chili Peppers
Year: 2011
Genre: Rock
Notes: Discogs
Add. Notes:
Encoder: FLAC
Bitrate: ~900 kBit/s (44.1 kHz/16 Bit/s)
Size: 570 MB
Password: “slam” (without ” “)


http://www.share-online.biz/dl/50I7NLPPCO
http://www.share-online.biz/dl/8MF7NLPPFYO
http://www.share-online.biz/dl/JOH7NLPPS1A
https://rapidgator.net/file/9065d432b516859006a05c4820cb32c3/ReHoCiPe-RoTrThTi.part1.rar
https://rapidgator.net/file/6179c55682209c2c706a7618bf536c28/ReHoCiPe-RoTrThTi.part2.rar
https://rapidgator.net/file/47327f24876368fd9880af3df4b8fb16/ReHoCiPe-RoTrThTi.part3.rar
https://ayefiles.com/oh5l1k3aipt2/ReHoCiPe-RoTrThTi.part1.rar.html
https://ayefiles.com/6j53lzjgwqj4/ReHoCiPe-RoTrThTi.part2.rar.html
https://ayefiles.com/zfrspjxdeic4/ReHoCiPe-RoTrThTi.part3.rar.html

Onlinestatus: Turbobit.net Rapidgator.net AyeFiles.com

Tracklist:

1 - Give It Away - 4:43
2 - Under The Bridge - 4:24
3 - Suck My Kiss - 3:35
4 - Scar Tissue - 3:37
5 - Breaking The Girl - 4:55
6 - Around The World - 3:59
7 - Otherside - 4:16
8 - Aeroplane - 4:10
9 - Californication - 5:21
10 - By The Way - 3:36
11 - Snow (Hey Oh) - 5:36
12 - Soul To Squeeze - 4:50
13 - Tell Me Baby - 4:08
14 - Dani California - 4:42
15 - Cant Stop - 4:29
16 - Parallel Universe - 4:31
17 - The Zephyr Song - 3:52
18 - Road Trippin - 3:26

EAC-Log, CUE-Sheed & NFO:

Click to open spoiler
Exact Audio Copy V1.0 beta 1 from 15. November 2010

EAC extraction logfile from 5. September 2011, 22:46

Red Hot Chili Peppers / Road Trippin’ Through Time

Used drive : PIONEER DVD-RW DVR-110D Adapter: 0 ID: 0

Read mode : Secure
Utilize accurate stream : Yes
Defeat audio cache : Yes
Make use of C2 pointers : No

Read offset correction : 48
Overread into Lead-In and Lead-Out : No
Fill up missing offset samples with silence : Yes
Delete leading and trailing silent blocks : No
Null samples used in CRC calculations : Yes
Used interface : Native Win32 interface for Win NT & 2000
Gap handling : Appended to previous track

Used output format : User Defined Encoder
Selected bitrate : 128 kBit/s
Quality : High
Add ID3 tag : No
Command line compressor : C:\Program Files\Exact Audio Copy\Flac\flac.exe
Additional command line options : -V -8 -T “artist=%a” -T “title=%t” -T “album=%g” -T “date=%y” -T “tracknumber=%n” -T “genre=%m” %s

TOC of the extracted CD

Track | Start | Length | Start sector | End sector
———————————————————
1 | 0:00.00 | 4:46.19 | 0 | 21468
2 | 4:46.19 | 4:36.22 | 21469 | 42190
3 | 9:22.41 | 3:37.51 | 42191 | 58516
4 | 13:00.17 | 3:38.56 | 58517 | 74922
5 | 16:38.73 | 4:56.44 | 74923 | 97166
6 | 21:35.42 | 4:00.06 | 97167 | 115172
7 | 25:35.48 | 4:17.68 | 115173 | 134515
8 | 29:53.41 | 4:12.12 | 134516 | 153427
9 | 34:05.53 | 5:22.12 | 153428 | 177589
10 | 39:27.65 | 3:37.31 | 177590 | 193895
11 | 43:05.21 | 5:37.21 | 193896 | 219191
12 | 48:42.42 | 4:52.33 | 219192 | 241124
13 | 53:35.00 | 4:10.26 | 241125 | 259900
14 | 57:45.26 | 4:45.48 | 259901 | 281323
15 | 62:30.74 | 4:31.18 | 281324 | 301666
16 | 67:02.17 | 4:32.26 | 301667 | 322092
17 | 71:34.43 | 3:54.16 | 322093 | 339658
18 | 75:28.59 | 3:25.62 | 339659 | 355095

Track 1

Filename F:\WHAT.CD\Red Hot Chili Peppers – Road Trippin’ Through Time (2011) – FLAC\01 – Red Hot Chili Peppers – Give It Away.wav

Pre-gap length 0:00:02.00

Peak level 98.9 %
Extraction speed 4.4 X
Track quality 99.9 %
Test CRC A8ECBCD3
Copy CRC A8ECBCD3
Accurately ripped (confidence 1) [A60A502D]
Copy OK

Track 2

Filename F:\WHAT.CD\Red Hot Chili Peppers – Road Trippin’ Through Time (2011) – FLAC\02 – Red Hot Chili Peppers – Under The Bridge.wav

Pre-gap length 0:00:01.44

Peak level 98.8 %
Extraction speed 4.8 X
Track quality 99.9 %
Test CRC 82A2A6A5
Copy CRC 82A2A6A5
Accurately ripped (confidence 1) [947BA08B]
Copy OK

Track 3

Filename F:\WHAT.CD\Red Hot Chili Peppers – Road Trippin’ Through Time (2011) – FLAC\03 – Red Hot Chili Peppers – Suck My Kiss.wav

Pre-gap length 0:00:02.41

Peak level 99.9 %
Extraction speed 5.6 X
Track quality 100.0 %
Test CRC BE0AD9A6
Copy CRC BE0AD9A6
Accurately ripped (confidence 1) [A4BC30F0]
Copy OK

Track 4

Filename F:\WHAT.CD\Red Hot Chili Peppers – Road Trippin’ Through Time (2011) – FLAC\04 – Red Hot Chili Peppers – Scar Tissue.wav

Pre-gap length 0:00:02.20

Peak level 99.9 %
Extraction speed 5.9 X
Track quality 100.0 %
Test CRC 621327A1
Copy CRC 621327A1
Accurately ripped (confidence 1) [A5D35610]
Copy OK

Track 5

Filename F:\WHAT.CD\Red Hot Chili Peppers – Road Trippin’ Through Time (2011) – FLAC\05 – Red Hot Chili Peppers – Breaking The Girl.wav

Pre-gap length 0:00:01.21

Peak level 99.9 %
Extraction speed 6.5 X
Track quality 100.0 %
Test CRC A1BFAE99
Copy CRC A1BFAE99
Accurately ripped (confidence 1) [03B346B2]
Copy OK

Track 6

Filename F:\WHAT.CD\Red Hot Chili Peppers – Road Trippin’ Through Time (2011) – FLAC\06 – Red Hot Chili Peppers – Around The World.wav

Pre-gap length 0:00:01.43

Peak level 99.9 %
Extraction speed 5.8 X
Track quality 99.9 %
Test CRC 25F0CBFC
Copy CRC 25F0CBFC
Accurately ripped (confidence 1) [BE34EDBA]
Copy OK

Track 7

Filename F:\WHAT.CD\Red Hot Chili Peppers – Road Trippin’ Through Time (2011) – FLAC\07 – Red Hot Chili Peppers – Otherside.wav

Pre-gap length 0:00:01.42

Peak level 98.8 %
Extraction speed 7.0 X
Track quality 100.0 %
Test CRC 264630B4
Copy CRC 264630B4
Accurately ripped (confidence 1) [934E4D3D]
Copy OK

Track 8

Filename F:\WHAT.CD\Red Hot Chili Peppers – Road Trippin’ Through Time (2011) – FLAC\08 – Red Hot Chili Peppers – Aeroplane.wav

Pre-gap length 0:00:01.44

Peak level 99.9 %
Extraction speed 7.2 X
Track quality 100.0 %
Test CRC 755D3F54
Copy CRC 755D3F54
Accurately ripped (confidence 1) [EF7E31D4]
Copy OK

Track 9

Filename F:\WHAT.CD\Red Hot Chili Peppers – Road Trippin’ Through Time (2011) – FLAC\09 – Red Hot Chili Peppers – Californication.wav

Pre-gap length 0:00:01.58

Peak level 98.8 %
Extraction speed 7.6 X
Track quality 100.0 %
Test CRC 30708F09
Copy CRC 30708F09
Accurately ripped (confidence 1) [9D7B18A2]
Copy OK

Track 10

Filename F:\WHAT.CD\Red Hot Chili Peppers – Road Trippin’ Through Time (2011) – FLAC\10 – Red Hot Chili Peppers – By The Way.wav

Peak level 98.8 %
Extraction speed 7.4 X
Track quality 100.0 %
Test CRC 1DB54745
Copy CRC 1DB54745
Accurately ripped (confidence 1) [FCCF05B3]
Copy OK

Track 11

Filename F:\WHAT.CD\Red Hot Chili Peppers – Road Trippin’ Through Time (2011) – FLAC\11 – Red Hot Chili Peppers – Snow (Hey Oh).wav

Pre-gap length 0:00:01.42

Peak level 99.9 %
Extraction speed 8.1 X
Track quality 100.0 %
Test CRC 43135C1F
Copy CRC 43135C1F
Accurately ripped (confidence 1) [46E992B6]
Copy OK

Track 12

Filename F:\WHAT.CD\Red Hot Chili Peppers – Road Trippin’ Through Time (2011) – FLAC\12 – Red Hot Chili Peppers – Soul To Squeeze.wav

Pre-gap length 0:00:02.13

Peak level 98.8 %
Extraction speed 8.2 X
Track quality 100.0 %
Test CRC 41409D98
Copy CRC 41409D98
Accurately ripped (confidence 1) [3667C3AF]
Copy OK

Track 13

Filename F:\WHAT.CD\Red Hot Chili Peppers – Road Trippin’ Through Time (2011) – FLAC\13 – Red Hot Chili Peppers – Tell Me Baby.wav

Pre-gap length 0:00:02.35

Peak level 99.9 %
Extraction speed 8.2 X
Track quality 100.0 %
Test CRC 71465E2D
Copy CRC 71465E2D
Accurately ripped (confidence 1) [0B690033]
Copy OK

Track 14

Filename F:\WHAT.CD\Red Hot Chili Peppers – Road Trippin’ Through Time (2011) – FLAC\14 – Red Hot Chili Peppers – Dani California.wav

Pre-gap length 0:00:02.18

Peak level 99.9 %
Extraction speed 8.6 X
Track quality 100.0 %
Test CRC BA93ADAD
Copy CRC BA93ADAD
Accurately ripped (confidence 1) [208311F5]
Copy OK

Track 15

Filename F:\WHAT.CD\Red Hot Chili Peppers – Road Trippin’ Through Time (2011) – FLAC\15 – Red Hot Chili Peppers – Can’t Stop.wav

Pre-gap length 0:00:02.71

Peak level 98.8 %
Extraction speed 8.1 X
Track quality 100.0 %
Test CRC 994BF2A1
Copy CRC 994BF2A1
Accurately ripped (confidence 1) [A43EBD3B]
Copy OK

Track 16

Filename F:\WHAT.CD\Red Hot Chili Peppers – Road Trippin’ Through Time (2011) – FLAC\16 – Red Hot Chili Peppers – Parallel Universe.wav

Pre-gap length 0:00:02.11

Peak level 98.8 %
Extraction speed 7.3 X
Track quality 99.9 %
Test CRC D5A18B7A
Copy CRC D5A18B7A
Accurately ripped (confidence 1) [3706DC06]
Copy OK

Track 17

Filename F:\WHAT.CD\Red Hot Chili Peppers – Road Trippin’ Through Time (2011) – FLAC\17 – Red Hot Chili Peppers – The Zephyr Song.wav

Pre-gap length 0:00:00.71

Peak level 98.8 %
Extraction speed 2.3 X
Track quality 100.0 %
Test CRC 08E06CA0
Copy CRC 08E06CA0
Accurately ripped (confidence 1) [7C42DB10]
Copy OK

Track 18

Filename F:\WHAT.CD\Red Hot Chili Peppers – Road Trippin’ Through Time (2011) – FLAC\18 – Red Hot Chili Peppers – Road Trippin’.wav

Pre-gap length 0:00:02.26

Peak level 96.6 %
Extraction speed 2.2 X
Track quality 100.0 %
Test CRC A5114EA6
Copy CRC A5114EA6
Accurately ripped (confidence 1) [1603C5FF]
Copy OK

All tracks accurately ripped

No errors occurred

End of status report

==== Log checksum 1A5E96C90F027D4A205A1B98827186D98DA29190EC6CEE8DB5CB4C6FF94C922D ====

REM GENRE Rock
REM DATE 2011
REM DISCID 14127E12
REM COMMENT “ExactAudioCopy v1.0b1”
PERFORMER “Red Hot Chili Peppers”
TITLE “Road Trippin’ Through Time”
FILE “01 – Red Hot Chili Peppers – Give It Away.wav” WAVE
TRACK 01 AUDIO
TITLE “Give It Away”
PERFORMER “Red Hot Chili Peppers”
INDEX 01 00:00:00
TRACK 02 AUDIO
TITLE “Under The Bridge”
PERFORMER “Red Hot Chili Peppers”
INDEX 00 04:44:50
FILE “02 – Red Hot Chili Peppers – Under The Bridge.wav” WAVE
INDEX 01 00:00:00
TRACK 03 AUDIO
TITLE “Suck My Kiss”
PERFORMER “Red Hot Chili Peppers”
INDEX 00 04:33:56
FILE “03 – Red Hot Chili Peppers – Suck My Kiss.wav” WAVE
INDEX 01 00:00:00
TRACK 04 AUDIO
TITLE “Scar Tissue”
PERFORMER “Red Hot Chili Peppers”
INDEX 00 03:35:31
FILE “04 – Red Hot Chili Peppers – Scar Tissue.wav” WAVE
INDEX 01 00:00:00
TRACK 05 AUDIO
TITLE “Breaking The Girl”
PERFORMER “Red Hot Chili Peppers”
INDEX 00 03:37:35
FILE “05 – Red Hot Chili Peppers – Breaking The Girl.wav” WAVE
INDEX 01 00:00:00
TRACK 06 AUDIO
TITLE “Around The World”
PERFORMER “Red Hot Chili Peppers”
INDEX 00 04:55:01
FILE “06 – Red Hot Chili Peppers – Around The World.wav” WAVE
INDEX 01 00:00:00
TRACK 07 AUDIO
TITLE “Otherside”
PERFORMER “Red Hot Chili Peppers”
INDEX 00 03:58:39
FILE “07 – Red Hot Chili Peppers – Otherside.wav” WAVE
INDEX 01 00:00:00
TRACK 08 AUDIO
TITLE “Aeroplane”
PERFORMER “Red Hot Chili Peppers”
INDEX 00 04:16:24
FILE “08 – Red Hot Chili Peppers – Aeroplane.wav” WAVE
INDEX 01 00:00:00
TRACK 09 AUDIO
TITLE “Californication”
PERFORMER “Red Hot Chili Peppers”
INDEX 00 04:10:29
FILE “09 – Red Hot Chili Peppers – Californication.wav” WAVE
INDEX 01 00:00:00
FILE “10 – Red Hot Chili Peppers – By The Way.wav” WAVE
TRACK 10 AUDIO
TITLE “By The Way”
PERFORMER “Red Hot Chili Peppers”
INDEX 01 00:00:00
TRACK 11 AUDIO
TITLE “Snow (Hey Oh)”
PERFORMER “Red Hot Chili Peppers”
INDEX 00 03:35:64
FILE “11 – Red Hot Chili Peppers – Snow (Hey Oh).wav” WAVE
INDEX 01 00:00:00
TRACK 12 AUDIO
TITLE “Soul To Squeeze”
PERFORMER “Red Hot Chili Peppers”
INDEX 00 05:35:08
FILE “12 – Red Hot Chili Peppers – Soul To Squeeze.wav” WAVE
INDEX 01 00:00:00
TRACK 13 AUDIO
TITLE “Tell Me Baby”
PERFORMER “Red Hot Chili Peppers”
INDEX 00 04:49:73
FILE “13 – Red Hot Chili Peppers – Tell Me Baby.wav” WAVE
INDEX 01 00:00:00
TRACK 14 AUDIO
TITLE “Dani California”
PERFORMER “Red Hot Chili Peppers”
INDEX 00 04:08:08
FILE “14 – Red Hot Chili Peppers – Dani California.wav” WAVE
INDEX 01 00:00:00
TRACK 15 AUDIO
TITLE “Can’t Stop”
PERFORMER “Red Hot Chili Peppers”
INDEX 00 04:42:52
FILE “15 – Red Hot Chili Peppers – Can’t Stop.wav” WAVE
INDEX 01 00:00:00
TRACK 16 AUDIO
TITLE “Parallel Universe”
PERFORMER “Red Hot Chili Peppers”
INDEX 00 04:29:07
FILE “16 – Red Hot Chili Peppers – Parallel Universe.wav” WAVE
INDEX 01 00:00:00
TRACK 17 AUDIO
TITLE “The Zephyr Song”
PERFORMER “Red Hot Chili Peppers”
INDEX 00 04:31:30
FILE “17 – Red Hot Chili Peppers – The Zephyr Song.wav” WAVE
INDEX 01 00:00:00
TRACK 18 AUDIO
TITLE “Road Trippin'”
PERFORMER “Red Hot Chili Peppers”
INDEX 00 03:51:65
FILE “18 – Red Hot Chili Peppers – Road Trippin’.wav” WAVE
INDEX 01 00:00:00

Leave a Reply

Your email address will not be published. Required fields are marked *

This site uses Akismet to reduce spam. Learn how your comment data is processed.