Red Hot Chili Peppers – Live in Hyde Park




Artist: Red Hot Chili Peppers
Year: 2004
Genre: Rock
Notes: Discogs
Add. Notes:
Encoder: FLAC
Bitrate: ~1000 kBit/s (44.1 kHz/16 Bit/s)
Size: 887 MB
Password: “slam” (without ” “)


http://www.share-online.biz/dl/BMY6NLPPCV
http://www.share-online.biz/dl/H317NLPP41L
http://www.share-online.biz/dl/N907NLPPBPB
http://www.share-online.biz/dl/UMV6NLPP5R
https://rapidgator.net/file/f7425d22a1f95d43cf1af1aa3282acc9/ReHoCiPe-LiInHyPa.part1.rar
https://rapidgator.net/file/151a0ccd511ae5a3644512cbb9eda49a/ReHoCiPe-LiInHyPa.part2.rar
https://rapidgator.net/file/138e8b9fe0d0c8a7db0aae9f06295864/ReHoCiPe-LiInHyPa.part3.rar
https://rapidgator.net/file/7a30f798feae5532a8bac455b9cb4d56/ReHoCiPe-LiInHyPa.part4.rar
https://ayefiles.com/6wuekeb61v3u/ReHoCiPe-LiInHyPa.part1.rar.html
https://ayefiles.com/3oquovnblj57/ReHoCiPe-LiInHyPa.part2.rar.html
https://ayefiles.com/x59fvbtqhvf2/ReHoCiPe-LiInHyPa.part3.rar.html
https://ayefiles.com/ruluzbyolzes/ReHoCiPe-LiInHyPa.part4.rar.html

Onlinestatus: Turbobit.net Rapidgator.net AyeFiles.com

Tracklist:

1-01 - Intro - 3:57
1-02 - Cant Stop - 5:13
1-03 - Around The World - 4:12
1-04 - Scar Tissue - 4:08
1-05 - By The Way - 5:20
1-06 - Fortune Faded - 3:28
1-07 - I Feel Love - 1:29
1-08 - Otherside - 4:34
1-09 - Easily - 5:00
1-10 - Universally Speaking - 4:17
1-11 - Get On Top - 4:06
1-12 - Brandy - 3:34
1-13 - Dont Forget Me - 5:23
1-14 - Rolling Sly Stone - 5:05
2-01 - Throw Away Your Television - 
7:32
2-02 - Leverage Of Space - 3:29
2-03 - Purple Stain - 4:17
2-04 - The Zephyr Song - 7:05
2-05 - Californication - 5:26
2-06 - Right On Time - 3:54
2-07 - Parallel Universe - 5:38
2-08 - Drum Homage Medley - 1:29
2-09 - Under The Bridge - 4:54
2-10 - Black Cross - 3:31
2-11 - Fleas Trumpet Treated By 
John - 3:29
2-12 - Give It Away - 13:15

EAC-Log, CUE-Sheed & NFO:

Click to open spoiler
Exact Audio Copy V0.99 prebeta 4 from 23. January 2008

EAC extraction logfile from 11. May 2009, 21:21

Red Hot Chili Peppers / Live in Hyde Park (disc 1)

Used drive : DVD 16X Adapter: 0 ID: 0

Read mode : Secure
Utilize accurate stream : Yes
Defeat audio cache : Yes
Make use of C2 pointers : No

Read offset correction : 6
Overread into Lead-In and Lead-Out : No
Fill up missing offset samples with silence : Yes
Delete leading and trailing silent blocks : No
Null samples used in CRC calculations : Yes
Used interface : Native Win32 interface for Win NT & 2000
Gap handling : Appended to previous track

Used output format : User Defined Encoder
Selected bitrate : 768 kBit/s
Quality : High
Add ID3 tag : No
Command line compressor : I:\Program Files\Exact Audio Copy\FLAC\FLAC.EXE
Additional command line options : -V -8 -T “artist=%a” -T “title=%t” -T “album=%g” -T “date=%y” -T “tracknumber=%n” -T “genre=%m” %s

TOC of the extracted CD

Track | Start | Length | Start sector | End sector
———————————————————
1 | 0:00.00 | 3:56.52 | 0 | 17751
2 | 3:56.52 | 5:13.08 | 17752 | 41234
3 | 9:09.60 | 4:12.30 | 41235 | 60164
4 | 13:22.15 | 4:08.27 | 60165 | 78791
5 | 17:30.42 | 5:20.15 | 78792 | 102806
6 | 22:50.57 | 3:28.25 | 102807 | 118431
7 | 26:19.07 | 1:28.68 | 118432 | 125099
8 | 27:48.00 | 4:34.00 | 125100 | 145649
9 | 32:22.00 | 5:00.05 | 145650 | 168154
10 | 37:22.05 | 4:16.65 | 168155 | 187419
11 | 41:38.70 | 4:06.10 | 187420 | 205879
12 | 45:45.05 | 3:34.20 | 205880 | 221949
13 | 49:19.25 | 5:22.72 | 221950 | 246171
14 | 54:42.22 | 5:05.00 | 246172 | 269046

Track 1

Filename C:\Unused Desktop Shortcuts\Live in Hyde Park\Red Hot Chili Peppers – 2004 – Live in Hyde Park (disc 1)\01 – Intro.wav

Pre-gap length 0:00:02.00

Peak level 98.8 %
Track quality 100.0 %
Test CRC D1CB75B7
Copy CRC D1CB75B7
Accurately ripped (confidence 59) [1C5E7164]
Copy OK

Track 2

Filename C:\Unused Desktop Shortcuts\Live in Hyde Park\Red Hot Chili Peppers – 2004 – Live in Hyde Park (disc 1)\02 – Can’t Stop.wav

Peak level 98.8 %
Track quality 100.0 %
Test CRC CC12AA7C
Copy CRC CC12AA7C
Accurately ripped (confidence 58) [7D768495]
Copy OK

Track 3

Filename C:\Unused Desktop Shortcuts\Live in Hyde Park\Red Hot Chili Peppers – 2004 – Live in Hyde Park (disc 1)\03 – Around the World.wav

Peak level 98.8 %
Track quality 100.0 %
Test CRC 148AC8A0
Copy CRC 148AC8A0
Accurately ripped (confidence 61) [B27BF383]
Copy OK

Track 4

Filename C:\Unused Desktop Shortcuts\Live in Hyde Park\Red Hot Chili Peppers – 2004 – Live in Hyde Park (disc 1)\04 – Scar Tissue.wav

Peak level 98.8 %
Track quality 99.9 %
Test CRC A6C136F7
Copy CRC A6C136F7
Accurately ripped (confidence 61) [FF17CF5B]
Copy OK

Track 5

Filename C:\Unused Desktop Shortcuts\Live in Hyde Park\Red Hot Chili Peppers – 2004 – Live in Hyde Park (disc 1)\05 – By the Way.wav

Peak level 98.8 %
Track quality 100.0 %
Test CRC B6984D0F
Copy CRC B6984D0F
Accurately ripped (confidence 62) [C7C7A44E]
Copy OK

Track 6

Filename C:\Unused Desktop Shortcuts\Live in Hyde Park\Red Hot Chili Peppers – 2004 – Live in Hyde Park (disc 1)\06 – Fortune Faded.wav

Peak level 98.8 %
Track quality 100.0 %
Test CRC 4650186C
Copy CRC 4650186C
Accurately ripped (confidence 61) [6FA9655F]
Copy OK

Track 7

Filename C:\Unused Desktop Shortcuts\Live in Hyde Park\Red Hot Chili Peppers – 2004 – Live in Hyde Park (disc 1)\07 – I Feel Love.wav

Peak level 98.8 %
Track quality 100.0 %
Test CRC 2A632729
Copy CRC 2A632729
Accurately ripped (confidence 60) [4266F792]
Copy OK

Track 8

Filename C:\Unused Desktop Shortcuts\Live in Hyde Park\Red Hot Chili Peppers – 2004 – Live in Hyde Park (disc 1)\08 – Otherside.wav

Peak level 98.8 %
Track quality 100.0 %
Test CRC 5D1BE1BA
Copy CRC 5D1BE1BA
Accurately ripped (confidence 58) [8145CEC7]
Copy OK

Track 9

Filename C:\Unused Desktop Shortcuts\Live in Hyde Park\Red Hot Chili Peppers – 2004 – Live in Hyde Park (disc 1)\09 – Easily.wav

Peak level 98.8 %
Track quality 100.0 %
Test CRC 17752602
Copy CRC 17752602
Accurately ripped (confidence 58) [F526ED9D]
Copy OK

Track 10

Filename C:\Unused Desktop Shortcuts\Live in Hyde Park\Red Hot Chili Peppers – 2004 – Live in Hyde Park (disc 1)\10 – Universally Speaking.wav

Peak level 98.8 %
Track quality 100.0 %
Test CRC D842E254
Copy CRC D842E254
Accurately ripped (confidence 60) [4EC67196]
Copy OK

Track 11

Filename C:\Unused Desktop Shortcuts\Live in Hyde Park\Red Hot Chili Peppers – 2004 – Live in Hyde Park (disc 1)\11 – Get on Top.wav

Peak level 98.8 %
Track quality 100.0 %
Test CRC 8559EAC9
Copy CRC 8559EAC9
Accurately ripped (confidence 58) [8AA3769E]
Copy OK

Track 12

Filename C:\Unused Desktop Shortcuts\Live in Hyde Park\Red Hot Chili Peppers – 2004 – Live in Hyde Park (disc 1)\12 – Brandy.wav

Peak level 98.8 %
Track quality 100.0 %
Test CRC B38AD967
Copy CRC B38AD967
Accurately ripped (confidence 58) [9780BE20]
Copy OK

Track 13

Filename C:\Unused Desktop Shortcuts\Live in Hyde Park\Red Hot Chili Peppers – 2004 – Live in Hyde Park (disc 1)\13 – Don’t Forget Me.wav

Peak level 98.8 %
Track quality 100.0 %
Test CRC 392AD385
Copy CRC 392AD385
Accurately ripped (confidence 54) [0CDCA682]
Copy OK

Track 14

Filename C:\Unused Desktop Shortcuts\Live in Hyde Park\Red Hot Chili Peppers – 2004 – Live in Hyde Park (disc 1)\14 – Rolling Sly Stone.wav

Peak level 98.8 %
Track quality 100.0 %
Test CRC 218F7299
Copy CRC 218F7299
Accurately ripped (confidence 51) [875EA0F3]
Copy OK

All tracks accurately ripped

No errors occurred

End of status report

Exact Audio Copy V0.99 prebeta 4 from 23. January 2008

EAC extraction logfile from 11. May 2009, 21:44

Red Hot Chili Peppers / Live in Hyde Park (disc 2)

Used drive : DVD 16X Adapter: 0 ID: 0

Read mode : Secure
Utilize accurate stream : Yes
Defeat audio cache : Yes
Make use of C2 pointers : No

Read offset correction : 6
Overread into Lead-In and Lead-Out : No
Fill up missing offset samples with silence : Yes
Delete leading and trailing silent blocks : No
Null samples used in CRC calculations : Yes
Used interface : Native Win32 interface for Win NT & 2000
Gap handling : Appended to previous track

Used output format : User Defined Encoder
Selected bitrate : 768 kBit/s
Quality : High
Add ID3 tag : No
Command line compressor : I:\Program Files\Exact Audio Copy\FLAC\FLAC.EXE
Additional command line options : -V -8 -T “artist=%a” -T “title=%t” -T “album=%g” -T “date=%y” -T “tracknumber=%n” -T “genre=%m” %s

TOC of the extracted CD

Track | Start | Length | Start sector | End sector
———————————————————
1 | 0:00.00 | 7:31.50 | 0 | 33874
2 | 7:31.50 | 3:29.00 | 33875 | 49549
3 | 11:00.50 | 4:17.15 | 49550 | 68839
4 | 15:17.65 | 7:04.42 | 68840 | 100681
5 | 22:22.32 | 5:26.05 | 100682 | 125136
6 | 27:48.37 | 3:54.13 | 125137 | 142699
7 | 31:42.50 | 5:37.47 | 142700 | 168021
8 | 37:20.22 | 1:29.28 | 168022 | 174724
9 | 38:49.50 | 4:54.25 | 174725 | 196799
10 | 43:44.00 | 3:31.05 | 196800 | 212629
11 | 47:15.05 | 3:28.70 | 212630 | 228299
12 | 50:44.00 | 13:15.25 | 228300 | 287949

Track 1

Filename C:\Unused Desktop Shortcuts\Live in Hyde Park\Red Hot Chili Peppers – 2004 – Live in Hyde Park (disc 2)\01 – Throw Away Your Television.wav

Pre-gap length 0:00:02.00

Peak level 98.8 %
Track quality 100.0 %
Test CRC E5FCF65B
Copy CRC E5FCF65B
Accurately ripped (confidence 57) [A9839327]
Copy OK

Track 2

Filename C:\Unused Desktop Shortcuts\Live in Hyde Park\Red Hot Chili Peppers – 2004 – Live in Hyde Park (disc 2)\02 – Leverage of Space.wav

Peak level 98.8 %
Track quality 100.0 %
Test CRC 7C42D324
Copy CRC 7C42D324
Accurately ripped (confidence 58) [974A3EDF]
Copy OK

Track 3

Filename C:\Unused Desktop Shortcuts\Live in Hyde Park\Red Hot Chili Peppers – 2004 – Live in Hyde Park (disc 2)\03 – Purple Stain.wav

Peak level 98.8 %
Track quality 100.0 %
Test CRC 117DC29C
Copy CRC 117DC29C
Accurately ripped (confidence 57) [498C9DE4]
Copy OK

Track 4

Filename C:\Unused Desktop Shortcuts\Live in Hyde Park\Red Hot Chili Peppers – 2004 – Live in Hyde Park (disc 2)\04 – The Zephyr Song.wav

Peak level 98.8 %
Track quality 100.0 %
Test CRC 7C622695
Copy CRC 7C622695
Accurately ripped (confidence 58) [AE73E715]
Copy OK

Track 5

Filename C:\Unused Desktop Shortcuts\Live in Hyde Park\Red Hot Chili Peppers – 2004 – Live in Hyde Park (disc 2)\05 – Californication.wav

Peak level 98.8 %
Track quality 99.9 %
Test CRC 2D0DCC66
Copy CRC 2D0DCC66
Accurately ripped (confidence 60) [8E08B70A]
Copy OK

Track 6

Filename C:\Unused Desktop Shortcuts\Live in Hyde Park\Red Hot Chili Peppers – 2004 – Live in Hyde Park (disc 2)\06 – Right on Time.wav

Peak level 98.8 %
Track quality 100.0 %
Test CRC 8F0BACC3
Copy CRC 8F0BACC3
Accurately ripped (confidence 58) [27F338B1]
Copy OK

Track 7

Filename C:\Unused Desktop Shortcuts\Live in Hyde Park\Red Hot Chili Peppers – 2004 – Live in Hyde Park (disc 2)\07 – Parallel Universe.wav

Peak level 98.8 %
Track quality 100.0 %
Test CRC D5D2F0E1
Copy CRC D5D2F0E1
Accurately ripped (confidence 59) [7AD73C75]
Copy OK

Track 8

Filename C:\Unused Desktop Shortcuts\Live in Hyde Park\Red Hot Chili Peppers – 2004 – Live in Hyde Park (disc 2)\08 – Drum Homage Medley.wav

Peak level 98.8 %
Track quality 100.0 %
Test CRC 1AA5C096
Copy CRC 1AA5C096
Accurately ripped (confidence 59) [E2AB83D9]
Copy OK

Track 9

Filename C:\Unused Desktop Shortcuts\Live in Hyde Park\Red Hot Chili Peppers – 2004 – Live in Hyde Park (disc 2)\09 – Under the Bridge.wav

Peak level 98.8 %
Track quality 100.0 %
Test CRC A03C1A22
Copy CRC A03C1A22
Accurately ripped (confidence 59) [3B3EDEC5]
Copy OK

Track 10

Filename C:\Unused Desktop Shortcuts\Live in Hyde Park\Red Hot Chili Peppers – 2004 – Live in Hyde Park (disc 2)\10 – Black Cross.wav

Peak level 98.8 %
Track quality 100.0 %
Test CRC C8A6747C
Copy CRC C8A6747C
Accurately ripped (confidence 58) [5F91405B]
Copy OK

Track 11

Filename C:\Unused Desktop Shortcuts\Live in Hyde Park\Red Hot Chili Peppers – 2004 – Live in Hyde Park (disc 2)\11 – Flea’s Trumpet Treated by John.wav

Peak level 92.1 %
Track quality 100.0 %
Test CRC 1C11AE61
Copy CRC 1C11AE61
Accurately ripped (confidence 57) [872ABD43]
Copy OK

Track 12

Filename C:\Unused Desktop Shortcuts\Live in Hyde Park\Red Hot Chili Peppers – 2004 – Live in Hyde Park (disc 2)\12 – Give It Away.wav

Peak level 98.8 %
Track quality 99.9 %
Test CRC 9F9FAFC8
Copy CRC 9F9FAFC8
Accurately ripped (confidence 57) [0C6A4577]
Copy OK

All tracks accurately ripped

No errors occurred

End of status report

REM GENRE Unknown
REM DATE 2004
REM DISCID B40E030E
REM COMMENT “ExactAudioCopy v0.99pb4”
FILE “Red Hot Chili Peppers – 2004 – Live in Hyde Park (disc 1)\01 – Intro.wav” WAVE
TRACK 01 AUDIO
INDEX 01 00:00:00
FILE “Red Hot Chili Peppers – 2004 – Live in Hyde Park (disc 1)\02 – Can’t Stop.wav” WAVE
TRACK 02 AUDIO
INDEX 01 00:00:00
FILE “Red Hot Chili Peppers – 2004 – Live in Hyde Park (disc 1)\03 – Around the World.wav” WAVE
TRACK 03 AUDIO
INDEX 01 00:00:00
FILE “Red Hot Chili Peppers – 2004 – Live in Hyde Park (disc 1)\04 – Scar Tissue.wav” WAVE
TRACK 04 AUDIO
INDEX 01 00:00:00
FILE “Red Hot Chili Peppers – 2004 – Live in Hyde Park (disc 1)\05 – By the Way.wav” WAVE
TRACK 05 AUDIO
INDEX 01 00:00:00
FILE “Red Hot Chili Peppers – 2004 – Live in Hyde Park (disc 1)\06 – Fortune Faded.wav” WAVE
TRACK 06 AUDIO
INDEX 01 00:00:00
FILE “Red Hot Chili Peppers – 2004 – Live in Hyde Park (disc 1)\07 – I Feel Love.wav” WAVE
TRACK 07 AUDIO
INDEX 01 00:00:00
FILE “Red Hot Chili Peppers – 2004 – Live in Hyde Park (disc 1)\08 – Otherside.wav” WAVE
TRACK 08 AUDIO
INDEX 01 00:00:00
FILE “Red Hot Chili Peppers – 2004 – Live in Hyde Park (disc 1)\09 – Easily.wav” WAVE
TRACK 09 AUDIO
INDEX 01 00:00:00
FILE “Red Hot Chili Peppers – 2004 – Live in Hyde Park (disc 1)\10 – Universally Speaking.wav” WAVE
TRACK 10 AUDIO
INDEX 01 00:00:00
FILE “Red Hot Chili Peppers – 2004 – Live in Hyde Park (disc 1)\11 – Get on Top.wav” WAVE
TRACK 11 AUDIO
INDEX 01 00:00:00
FILE “Red Hot Chili Peppers – 2004 – Live in Hyde Park (disc 1)\12 – Brandy.wav” WAVE
TRACK 12 AUDIO
INDEX 01 00:00:00
FILE “Red Hot Chili Peppers – 2004 – Live in Hyde Park (disc 1)\13 – Don’t Forget Me.wav” WAVE
TRACK 13 AUDIO
INDEX 01 00:00:00
FILE “Red Hot Chili Peppers – 2004 – Live in Hyde Park (disc 1)\14 – Rolling Sly Stone.wav” WAVE
TRACK 14 AUDIO
INDEX 01 00:00:00

REM GENRE Unknown
REM DATE 2004
REM DISCID 9B0EFF0C
REM COMMENT “ExactAudioCopy v0.99pb4”
FILE “Red Hot Chili Peppers – 2004 – Live in Hyde Park (disc 2)\01 – Throw Away Your Television.wav” WAVE
TRACK 01 AUDIO
INDEX 01 00:00:00
FILE “Red Hot Chili Peppers – 2004 – Live in Hyde Park (disc 2)\02 – Leverage of Space.wav” WAVE
TRACK 02 AUDIO
INDEX 01 00:00:00
FILE “Red Hot Chili Peppers – 2004 – Live in Hyde Park (disc 2)\03 – Purple Stain.wav” WAVE
TRACK 03 AUDIO
INDEX 01 00:00:00
FILE “Red Hot Chili Peppers – 2004 – Live in Hyde Park (disc 2)\04 – The Zephyr Song.wav” WAVE
TRACK 04 AUDIO
INDEX 01 00:00:00
FILE “Red Hot Chili Peppers – 2004 – Live in Hyde Park (disc 2)\05 – Californication.wav” WAVE
TRACK 05 AUDIO
INDEX 01 00:00:00
FILE “Red Hot Chili Peppers – 2004 – Live in Hyde Park (disc 2)\06 – Right on Time.wav” WAVE
TRACK 06 AUDIO
INDEX 01 00:00:00
FILE “Red Hot Chili Peppers – 2004 – Live in Hyde Park (disc 2)\07 – Parallel Universe.wav” WAVE
TRACK 07 AUDIO
INDEX 01 00:00:00
FILE “Red Hot Chili Peppers – 2004 – Live in Hyde Park (disc 2)\08 – Drum Homage Medley.wav” WAVE
TRACK 08 AUDIO
INDEX 01 00:00:00
FILE “Red Hot Chili Peppers – 2004 – Live in Hyde Park (disc 2)\09 – Under the Bridge.wav” WAVE
TRACK 09 AUDIO
INDEX 01 00:00:00
FILE “Red Hot Chili Peppers – 2004 – Live in Hyde Park (disc 2)\10 – Black Cross.wav” WAVE
TRACK 10 AUDIO
INDEX 01 00:00:00
FILE “Red Hot Chili Peppers – 2004 – Live in Hyde Park (disc 2)\11 – Flea’s Trumpet Treated by John.wav” WAVE
TRACK 11 AUDIO
INDEX 01 00:00:00
FILE “Red Hot Chili Peppers – 2004 – Live in Hyde Park (disc 2)\12 – Give It Away.wav” WAVE
TRACK 12 AUDIO
INDEX 01 00:00:00

Leave a Reply

Your email address will not be published. Required fields are marked *

This site uses Akismet to reduce spam. Learn how your comment data is processed.